Заходят многие - остаются лучшие!
Здравствуйте Гость ( Вход | Регистрация ) Выслать повторно письмо для активации
Вход
Ваше имя Пароль Забыли пароль?
Запомнить Вас?
Войти скрытым?



 Правила раздела Новые сообщения раздела  


 

 Никто не хотел умирать / Niekas nenorejo mirti (1965), Драма,боевик;Реж-В.Жалакявичюс;Роли-Д.Банионис,В.Артмане,Б.Оя
SanSan48
  №1 Отправлено: 9.11.2018 - 18:59


"Спартак" - ЧЕМПИОН!!!

Группа: Пользователи
Регистрация: 28.12.2009
Сообщений: 1964
Обитает:
Последний раз был:
cегодня в 09:43




Никто не хотел умирать / Niekas nenorejo mirti (1965)



Предыдущие раздачи:
09.09.2013 (DVDrip)
04.01.2010 (DVDrip)
27.09.2007 (TVrip)

Жанр: Драма, боевик, вестерн
Выпущено: СССР, Литовская киностудия
Год выпуска: 1965
Премьера (СССР): январь 1966 (Вильнюс), 18 апреля 1966 (Москва), 5 сентября 1966 (СССР),
Премьера (мир): июль 1966 (Чехословакия, Международный кинофестиваль в Карловых Варах), 30 марта 1967 (Венгрия)
Сценарист: Витаутас Жалакявичюс
Оператор: Йонас Грицюс
Композитор: Альгимантас Апанавичюс
Художники: Витаутас Калинаускас, Альгирдас Ничюс, Виктория Бимбайте
Монтажёр: Изабела Пинайтыте

Режиссёр: Витаутас Жалакявичюс/ Vytautas Žalakevičius

В ролях:
Донатас Банионис / Donatas Banionis … Вайткус - дублирует Александр Демьяненко
Казимирас Виткус / Kazimieras Vitkus … отец Локис, убитый бандитами
Регимантас Адомайтис / Regimantas Adomaitis … сын Донатас - дублирует Эммануил Шварцберг
Юозас Будрайтис / Juozas Budraitis … сын Йонас - дублирует Юрий Соловьёв
Альгимантас Масюлис / Algimantas Masiulis … сын Миколас - дублирует Игорь Ефимов
Бруно Оя / Bruno Oja … сын Бронюс - дублирует Адольф Шестаков
Вия Артмане / Vija Artmane … Она - дублирует Вера Липсток
Дангуоле Баукайте / Danguole Baukaitė … Алдона - дублирует Галина Теплинская
Эугения Шулгайте / Eugenija Šulgaitė … Локене, мать - дублирует Евгения Лосакевич
Антанас Шурна / Antanas Šurna … секретарь - дублирует Лев Жуков
Бронюс Бабкаускас / Bronius Babkauskas … Марцинкус - дублирует Николай Гаврилов
Лаймонас Норейка / Laimonas Noreika … «святой» Юозапас/«Домовой» - дублирует Ефим Копелян
Витаутас Томкус / Vytautas Tomkus … Филин - дублирует Григорий Гай
Антанас Барчас / Antanas Barčas … «Борода»
Генрикас Римейка / Henrikas Rimeika … Пранас, милиционер
Альгирдас Врубляускас / Algirdas Vrubleuskas … Юрис Потюс, бывший солдат, коммунист
Она Алишаускайте / Ona Ališauskaitė … жена Потюса
Регина Зданавичюте / Regina Zdanavičiutė … жена Марцинкуса

Описание: Действие происходит в 1947 году после окончания войны, в период становления Советской власти в Литве, в деревне. Убит Локис, председатель сельского совета, пятый - за этот год. Убит он соратниками «Домового», которые являются противниками Советской власти. Сыновья Локиса клянутся отомстить. А на место Локиса насильно посажен Вайткус, бывший «лесной брат»...

Дополнительная информация: Релиз:

Автор рипа: pmv

Большое спасибо за:
- предоставленную запись с литовского телеканала LRT HD Saulius Kintera / Luxembourg /
- помощь в подготовке релиза - trecioka
- синхронизацию аудиодорожки с советским дубляжем - pmv

* Фильм дублирован на киностудии «Ленфильм».
Режиссер дубляжа: Михаил Короткевич
Звукооператор: А.Волохова
Роли дублировали: Александр Демьяненко, Эммануил Шварцберг, Григорий Гай, Игорь Ефимов, Адольф Шестаков, Вера Липсток, Галина Теплинская, Евгения Лосакевич, Лев Жуков, Николай Гаврилов, Ефим Копелян, Юрий Соловьёв

* В данной раздаче, в отличии от предыдущих, фильм представлен в широкоэкранной версии - 2.35:1.

* Во время трансляции фильма изредка появлялись информационные заставки, одну из которых можно увидеть в скринах, что ни в коей мере не влияет на качество просмотра.

IMDb = 7,9/10 (552) - http://www.imdb.com/title/tt0151750/
Кинопоиск = 7.819 (1105) - http://www.kinopoisk.ru/film/46439

ВНИМАНИЕ!!! РИП ФОРМАТА mkv (кодек H.264) ВОСПРОИЗВОДИТСЯ НЕ НА ВСЕХ БЫТОВЫХ ВИДЕОПЛЕЕРАХ!!!

Параметры файла:
Название: Никто не хотел умирать (1965, рус_дубл+лит).mkv
Качество видео: HDTVRip-AVC
Формат видео: MKV
Размер: 1,39 ГБ (1 494 410 636 байт)
Продолжительность: 01:40:17
Перевод: Профессиональный (дублированный) – к/с «Ленфильм»
Субтитры: русские (только на начальные титры)
Оригинальная аудиодорожка: литовский
Видео: AVC (H264), 704@1241x528 (2.35:1), 25 fps, 1600 kb/s, 0.172 Bits/Pixel
Аудио #1: Dolby AC3, 48 kHz, stereo (2 ch), 192 kbps – советский дубляж
Аудио #2: Dolby AC3, 48 kHz, stereo (2 ch), 192 kbps – литовский



General
Unique ID : 127979717918801481452552575643991324472 (0x6047FF4209A5E6CD0389B1C9A3D2B738)
Complete name : D:\torrents\Никто не хотел умирать (1965, рус_дубл+лит).mkv
Format : Matroska
Format version : Version 4 / Version 2
File size : 1.39 GiB
Duration : 1 h 40 min
Overall bit rate : 1 987 kb/s
Encoded date : UTC 2018-11-04 13:20:07
Writing application : mkvmerge v28.2.0 ('The Awakening') 64-bit
Writing library : libebml v1.3.6 + libmatroska v1.4.9

Video
ID : 1
Format : AVC
Format/Info : Advanced Video Codec
Format profile : High@L4.1
Format settings, CABAC : Yes
Format settings, RefFrames : 16 frames
Codec ID : V_MPEG4/ISO/AVC
Duration : 1 h 40 min
Bit rate : 1 600 kb/s
Width : 704 pixels
Height : 528 pixels
Display aspect ratio : 2.35:1
Original display aspect ratio : 4:3
Frame rate mode : Constant
Frame rate : 25.000 FPS
Color space : YUV
Chroma subsampling : 4:2:0
Bit depth : 8 bits
Scan type : Progressive
Bits/(Pixel*Frame) : 0.172
Stream size : 1.12 GiB (81%)
Writing library : x264 core 146 r2538 121396c
Encoding settings : cabac=1 / ref=16 / deblock=1:0:0 / analyse=0x3:0x133 / me=umh / subme=10 / psy=1 / psy_rd=1.00:0.00 / mixed_ref=1 / me_range=24 / chroma_me=1 / trellis=2 / 8x8dct=1 / cqm=0 / deadzone=21,11 / fast_pskip=1 / chroma_qp_offset=-2 / threads=48 / lookahead_threads=4 / sliced_threads=0 / nr=0 / decimate=1 / interlaced=0 / bluray_compat=0 / constrained_intra=0 / bframes=8 / b_pyramid=2 / b_adapt=2 / b_bias=0 / direct=3 / weightb=1 / open_gop=0 / weightp=2 / keyint=250 / keyint_min=25 / scenecut=40 / intra_refresh=0 / rc_lookahead=60 / rc=2pass / mbtree=1 / bitrate=1600 / ratetol=1.0 / qcomp=0.60 / qpmin=0 / qpmax=69 / qpstep=4 / cplxblur=20.0 / qblur=0.5 / ip_ratio=1.40 / aq=1:1.00
Language : Lithuanian
Default : Yes
Forced : No

Audio #1
ID : 2
Format : AC-3
Format/Info : Audio Coding 3
Format settings, Endianness : Big
Codec ID : A_AC3
Duration : 1 h 40 min
Bit rate mode : Constant
Bit rate : 192 kb/s
Channel(s) : 2 channels
Channel positions : Front: L R
Sampling rate : 48.0 kHz
Frame rate : 31.250 FPS (1536 SPF)
Bit depth : 16 bits
Compression mode : Lossy
Stream size : 138 MiB (10%)
Language : Russian
Service kind : Complete Main
Default : Yes
Forced : No

Audio #2
ID : 3
Format : AC-3
Format/Info : Audio Coding 3
Format settings, Endianness : Big
Codec ID : A_AC3
Duration : 1 h 40 min
Bit rate mode : Constant
Bit rate : 192 kb/s
Channel(s) : 2 channels
Channel positions : Front: L R
Sampling rate : 48.0 kHz
Frame rate : 31.250 FPS (1536 SPF)
Bit depth : 16 bits
Compression mode : Lossy
Stream size : 138 MiB (10%)
Language : Lithuanian
Service kind : Complete Main
Default : No
Forced : No

Text
ID : 4
Format : UTF-8
Codec ID : S_TEXT/UTF8
Codec ID/Info : UTF-8 Plain Text
Duration : 1 h 39 min
Bit rate : 2 b/s
Count of elements : 17
Stream size : 1.80 KiB (0%)
Language : Russian
Default : Yes
Forced : Yes








МОИ РАЗДАЧИ НА ФЕНИКСе: ЗДЕСЬ




Это сообщение отредактировал SanSan48 - 9.11.2018 - 19:16


--------------------
"Спартак" - ЧЕМПИОН!!!

Скрыть подпись


vjub58
№2 Отправлено: 9.11.2018 - 20:30


Практикующий эсквайр

Группа: Аксакалы
Регистрация: 6.12.2005
Сообщений: 4845
Обитает:
Последний раз был:
cегодня в 00:22




Спасибо, все ОК. pozdrav_buket.gif
Top
SanSan48
№3 Отправлено: 10.11.2018 - 06:09


"Спартак" - ЧЕМПИОН!!!

Группа: Пользователи
Регистрация: 28.12.2009
Сообщений: 1964
Обитает:
Последний раз был:
cегодня в 09:43




Цитата
( vjub58 @ 9.11.2018 - 20:30)
Спасибо, все ОК. pozdrav_buket.gif

vjub58, Благодарю за сообщение!

Приятного всем просмотра!


--------------------
"Спартак" - ЧЕМПИОН!!!

Скрыть подпись
Top
1 человек просматривает эту тему (1 гость)
« Предыдущая тема | Отечественное кино | Следующая тема »


 



[Script Execution time: 0,0258]   [23 queries used]   [GZIP enabled]