Заходят многие - остаются лучшие!
Здравствуйте Гость ( Вход | Регистрация ) Выслать повторно письмо для активации
Вход
Ваше имя Пароль Забыли пароль?
Запомнить Вас?
Войти скрытым?



 Правила раздела Новые сообщения раздела  


 

 Последняя женщина / La Derniere femme / L'Ultima donna / The Last Woman (1976), Драма;Реж.-М.Феррери;Роли-Ж.Депардье,О.Мути,М.Пикколи
SanSan48
  №1 Отправлено: 1.12.2019 - 09:38


"Спартак" - ЧЕМПИОН!!!

Группа: Пользователи
Регистрация: 28.12.2009
Сообщений: 2100
Обитает:
Последний раз был:
вчера в 18:46




Последняя женщина / La Derniere femme / L'Ultima donna / The Last Woman (1976)



Предыдущие раздачи:
31.10.2011 (DVDRip)
11.12.2010 (DVDRip)
18.12.2009 (SATrip)
24.04.2007 (VHSrip)

Жанр: Драма
Выпущено: Франция, Италия, Flaminia Produzioni Cinematografiche, Les Productions Jacques Roitfeld
Год выпуска: 1976
Премьера (мир): 21 апреля 1976 (Франция), 29 апреля 1976 (Финляндия), 29 апреля 1976 (Швеция)
Сценаристы: Марко Феррери / Marco Ferreri, Рафаэль Аскона / Rafael Azcona, Данте Мателли / Dante Matelli
Оператор: Лучиано Товоли / Luciano Tovoli
Композитор: Филипп Сард / Philippe Sarde
Художники: Мишель де Броин / Michel de Broin, Джитт Магрини / Gitt Magrini
Режиссёр: Марко Феррери / Marco Ferreri

В ролях:
Жерар Депардье / Gérard Depardieu ... Gerard
Орнелла Мути / Ornella Muti ... Valerie
Мишель Пикколи / Michel Piccoli ... Michel
Ренато Сальватори / Renato Salvatori ... Rene
Джулиана Каландра / Giuliana Calandra ... Benoite
Зузу / Zouzou ... Gabrielle
Натали Бай / Nathalie Baye ... La fille aux cerises
Даниэла Сильверио / Daniela Silverio ... L'amica della 'Marilyn' di Michele
Витторио Фанфони / Vittorio Fanfoni ... Il flic coi cani
Гуэррино Тотис / Guerrino Totis ... Il fuoriuscito cileno
Бенжамин Лабоннели / Benjamin Labonnelie ... Pierino
Соланж Скайден / Solange Skyden ... La guardarobiera al night club
Кэрол Перл / Carole Perle ... Amica di Gabrielle
Давид Биггани / David Biggani ... Pierrot

Описание: Описание: Скандальный фильм известного кинобунтаря Марко Феррери, посвященный краху мужского начала.
Жена главного героя (Жерар Депардье), ушла от него и стала феминисткой. Его любовница (Орнелла Мути) - довольно холодная молодая женщина невротического склада. А сам главный герой, видящий смысл в жизни лишь в еде, сексе и сне, не в силах перенести свою неспособность соответствовать собственным представлениям о мужественности...

Дополнительная информация: Релиз:

Исходник найден в сети.

Автор рипа: pmv

Большое спасибо за:
- аудиодорожку с русскими озвучками (https://) - sss777sss, Гость, hoh-match
- синхронизацию русской дорожки - pmv

* Качество изображения в данной раздаче получше (смотри сравнение), чем в раздаче от sss777sss (https://). К тому же там видео содержит болгарские хардсабы.

* Авторская одноголосая закадровая озвучка Константина Дьяконова изначально была наложена на итальянское аудио, поэтому было принято решение не включать её в рип. Желающие могут вставить её в рип самостоятельно - она лежит в архиве отдельным файлом. Туда же добавлены английские субтитры (отдельным файлом), хотя перевод не слишком удачный.

IMDb = 6,5/10 (1 003) - https://www.imdb.com/title/tt0075364/
Кинопоиск = 6.815 (769) - https://www.kinopoisk.ru/film/20931/

ВНИМАНИЕ!!! РИП ФОРМАТА mkv (кодек H.264) ВОСПРОИЗВОДИТСЯ НЕ НА ВСЕХ БЫТОВЫХ ВИДЕОПЛЕЕРАХ!!!

Параметры файла:
Название: La derniere Femme (1975, rus_DVO+fre+ger_sub).mkv
Качество видео: WEB-DLRip-AVC
Формат видео: MKV
Размер: 2,12 ГБ (2 282 534 986 байт)
Продолжительность: 01:45:27
Перевод: Профессиональный (двухголосый закадровый)
Субтитры: немецкие
Оригинальная аудиодорожка: французская
Видео: AVC (H264), 1152x648 (16:9), 25 fps, 2500 kbps, 0.134 Bits/Pixel
Аудио #1: AC3, 48 KHz, stereo (2 ch), 192 kbps – русский
Аудио #2: AC3, 48 KHz, stereo (2 ch), 192 kbps - французский

Дополнительно в архив добавлены:
Перевод: Авторский одноголосый закадровый – Константин Дьяконов (лежит в архиве отдельным файлом)
Субтитры: английские (лежит в архиве отдельным файлом)



General
Unique ID : 127787964505789908239292870814094924262 (0x60231115B3C3DACF7418A74CEA1119E6)
Complete name : D:\torrents\La derniere Femme (1975, rus_DVO+fre+ger_sub).mkv
Format : Matroska
Format version : Version 4 / Version 2
File size : 2.13 GiB
Duration : 1 h 45 min
Overall bit rate : 2 886 kb/s
Encoded date : UTC 2019-11-20 12:10:56
Writing application : mkvmerge v40.0.0 ('Old Town Road + Pony') 64-bit
Writing library : libebml v1.3.9 + libmatroska v1.5.2

Video
ID : 1
Format : AVC
Format/Info : Advanced Video Codec
Format profile : High@L4.1
Format settings, CABAC : Yes
Format settings, RefFrames : 11 frames
Codec ID : V_MPEG4/ISO/AVC
Duration : 1 h 45 min
Bit rate : 2 500 kb/s
Width : 1 152 pixels
Height : 648 pixels
Display aspect ratio : 16:9
Frame rate mode : Constant
Frame rate : 25.000 FPS
Color space : YUV
Chroma subsampling : 4:2:0
Bit depth : 8 bits
Scan type : Progressive
Bits/(Pixel*Frame) : 0.134
Stream size : 1.84 GiB (87%)
Writing library : x264 core 146 r2538 121396c
Encoding settings : cabac=1 / ref=11 / deblock=1:0:0 / analyse=0x3:0x133 / me=umh / subme=10 / psy=1 / psy_rd=1.00:0.00 / mixed_ref=1 / me_range=24 / chroma_me=1 / trellis=2 / 8x8dct=1 / cqm=0 / deadzone=21,11 / fast_pskip=1 / chroma_qp_offset=-2 / threads=48 / lookahead_threads=5 / sliced_threads=0 / nr=0 / decimate=1 / interlaced=0 / bluray_compat=0 / constrained_intra=0 / bframes=8 / b_pyramid=2 / b_adapt=2 / b_bias=0 / direct=3 / weightb=1 / open_gop=0 / weightp=2 / keyint=250 / keyint_min=25 / scenecut=40 / intra_refresh=0 / rc_lookahead=60 / rc=2pass / mbtree=1 / bitrate=2500 / ratetol=1.0 / qcomp=0.60 / qpmin=0 / qpmax=69 / qpstep=4 / cplxblur=20.0 / qblur=0.5 / ip_ratio=1.40 / aq=1:1.00
Language : French
Default : Yes
Forced : No

Audio #1
ID : 2
Format : AC-3
Format/Info : Audio Coding 3
Format settings, Endianness : Big
Codec ID : A_AC3
Duration : 1 h 45 min
Bit rate mode : Constant
Bit rate : 192 kb/s
Channel(s) : 2 channels
Channel positions : Front: L R
Sampling rate : 48.0 kHz
Frame rate : 31.250 FPS (1536 SPF)
Bit depth : 16 bits
Compression mode : Lossy
Stream size : 145 MiB (7%)
Language : Russian
Service kind : Complete Main
Default : Yes
Forced : No

Audio #2
ID : 3
Format : AC-3
Format/Info : Audio Coding 3
Format settings, Endianness : Big
Codec ID : A_AC3
Duration : 1 h 45 min
Bit rate mode : Constant
Bit rate : 192 kb/s
Channel(s) : 2 channels
Channel positions : Front: L R
Sampling rate : 48.0 kHz
Frame rate : 31.250 FPS (1536 SPF)
Bit depth : 16 bits
Compression mode : Lossy
Stream size : 145 MiB (7%)
Language : French
Service kind : Complete Main
Default : No
Forced : No

Text
ID : 4
Format : UTF-8
Codec ID : S_TEXT/UTF8
Codec ID/Info : UTF-8 Plain Text
Duration : 1 h 45 min
Bit rate : 128 b/s
Count of elements : 1456
Stream size : 99.0 KiB (0%)
Language : German
Default : No
Forced : No








https://ru-tra-ck-er.org/forum/viewtopic.php?t=5352745

sss777sss, HDTVRip, AVI, 720х400, 1.47 Гб ............ < > ......... CaCa48, WEB-DLRip, MKV, 1152x648, 2.12 Гб












МОИ РАЗДАЧИ НА ФЕНИКСе: ЗДЕСЬ




Это сообщение отредактировал SanSan48 - 1.12.2019 - 18:47


--------------------
"Спартак" - ЧЕМПИОН!!!

Скрыть подпись


KOP3NHA
№2 Отправлено: 1.12.2019 - 11:27


Посетитель

Группа: Потребители
Регистрация: 25.10.2015
Сообщений: 207
Обитает:
Последний раз был:
вчера в 21:33




Архивы OK. Спасибо!
Top
SanSan48
№3 Отправлено: 1.12.2019 - 13:02


"Спартак" - ЧЕМПИОН!!!

Группа: Пользователи
Регистрация: 28.12.2009
Сообщений: 2100
Обитает:
Последний раз был:
вчера в 18:46




Цитата
( KOP3NHA @ 1.12.2019 - 11:27)
Архивы OK. Спасибо!

KOP3NHA, Благодарю за сообщение!

Приятного всем просмотра!


--------------------
"Спартак" - ЧЕМПИОН!!!

Скрыть подпись
Top
1 человек просматривает эту тему (1 гость)
« Предыдущая тема | Зарубежные фильмы | Следующая тема »


 



[Script Execution time: 0,0226]   [23 queries used]   [GZIP enabled]