Заходят многие - остаются лучшие!
Здравствуйте Гость ( Вход | Регистрация ) Выслать повторно письмо для активации
Вход
Ваше имя Пароль Забыли пароль?
Запомнить Вас?
Войти скрытым?



Новые сообщения раздела  

 

 Смольный собор (2013), RTG Production Studios
bornik
  №1 Отправлено: 13.06.2018 - 19:48


Воспоминания - это богатства старости.

Группа: Модераторы
Регистрация: 18.08.2008
Сообщений: 1036
Обитает:
Последний раз был:
cегодня в 10:30




Смольный собор (2013)



«Смольный собор» — о своей живописности, выразительности композиции и наружному убранству Смольный собор в Санкт-Петербурге является одной из вершин мирового зодчества. Благодаря легким, словно тающим очертаниям создается впечатление будто этот храм парит над землей. Сотни гостей города ежедневно приезжают к Смольному, чтобы увидеть творение великого зодчего Франческо Бартоломео Растрелли. А нередко у туристов есть возможность посмотреть и на крестный ход — торжественное шествие и богослужение православных верующих.


Оригинальное название: Смольный собор
Год выпуска: 2013
Жанр: Документальный, познавательный
Выпущено: Россия, , RTG Production Studios
Продолжительность: 00:24:44
Субтитры: Русские (мои)


Режиссёр: Елена Нупрейчик / Elena Nupreichik
Сценарист: Владимир Васильев / Vladimir Vasiliev

Ведущая: Надежда Лебедева / Nadezhda Lebedeva


Описание: Смольный Воскресения Христова собор (Смольный собор) входит в состав архитектурного ансамбля Смольного монастыря, который находится в Санкт-Петербурге на левом берегу Невы на Смольной набережной. Он является одним из красивейших архитектурных памятников России.
Зрителям предлагается совершить небольшую видеоэкскурсию и узнать для себя немало нового и интересного!










General
Complete name : C:\DVD documental fimls\RTG\Смольный собор\Смольный собор (2013).avi
Format : AVI
Format/Info : Audio Video Interleave
File size : 390 MiB
Duration : 24mn 44s
Overall bit rate : 2 206 Kbps
Writing library : VirtualDub build 35491/release

Video
ID : 0
Format : MPEG-4 Visual
Format profile : Advanced Simple@L5
Format settings, BVOP : 2
Format settings, QPel : No
Format settings, GMC : No warppoints
Format settings, Matrix : Default (H.263)
Muxing mode : Packed bitstream
Codec ID : XVID
Codec ID/Hint : XviD
Duration : 24mn 44s
Bit rate : 2 001 Kbps
Width : 720 pixels
Height : 400 pixels
Display aspect ratio : 16:9
Frame rate : 25.000 fps
Color space : YUV
Chroma subsampling : 4:2:0
Bit depth : 8 bits
Scan type : Progressive
Compression mode : Lossy
Bits/(Pixel*Frame) : 0.278
Stream size : 354 MiB (91%)
Writing library : XviD 65

Audio
ID : 1
Format : MPEG Audio
Format version : Version 1
Format profile : Layer 3
Mode : Joint stereo
Codec ID : 55
Codec ID/Hint : MP3
Duration : 24mn 44s
Bit rate mode : Constant
Bit rate : 192 Kbps
Channel(s) : 2 channels
Sampling rate : 48.0 KHz
Compression mode : Lossy
Stream size : 34.0 MiB (9%)
Alignment : Aligned on interleaves
Interleave, duration : 24 ms (0.60 video frame)
Interleave, preload duration : 504 ms
Writing library : LAME3.98.2


=================================

Исходником послужил релиз HDTV, найденный на просторах инета!

Архивы созданы RAR-архиватором с добавлением 3% на восстановление и снабжены sfv-проверочником.
Просьба к первому скачавшему отписаться о сохранности архивов на источнике раздачи.


ПРИЯТНОГО ВСЕМ ПРОСМОТРА !!!




--------------------
Безоблачная старость – это миф,
Поскольку наша память – ширь морская,
И к ночи начинается прилив,
Со дна обломки прошлого таская.
Игорь Губерман

Скрыть подпись


bondsun
№2 Отправлено: 13.06.2018 - 20:24


кучерявый

Группа: Потребители
Регистрация: 17.08.2009
Сообщений: 4511
Обитает:
На форуме с:
cегодня в 11:31





Благодарствую, архивы в порядке.


--------------------
Пусть рушится мир весь вокруг, пополам,
Пусть часто фортуна не прёт.
Не кофе нас должен бодрить по утрам,
А тот, кто его подаёт.

happy.gif

Скрыть подпись
Top
bornik
№3 Отправлено: 14.06.2018 - 03:04


Воспоминания - это богатства старости.

Группа: Модераторы
Регистрация: 18.08.2008
Сообщений: 1036
Обитает:
Последний раз был:
cегодня в 10:30




Цитата
( bondsun @ 13.06.2018 - 20:24)
Благодарствую, архивы в порядке.

И Вам, bondsun, спасибо за добрую весть. happy_fly.gif


--------------------
Безоблачная старость – это миф,
Поскольку наша память – ширь морская,
И к ночи начинается прилив,
Со дна обломки прошлого таская.
Игорь Губерман

Скрыть подпись
Top
1 человек просматривает эту тему (1 гость)
« Предыдущая тема | Мир вокруг нас | Следующая тема »


 



[Script Execution time: 0,0403]   [23 queries used]   [GZIP enabled]