Заходят многие - остаются лучшие!
Здравствуйте Гость ( Вход | Регистрация ) Выслать повторно письмо для активации
Вход
Ваше имя Пароль Забыли пароль?
Запомнить Вас?
Войти скрытым?



 Правила раздела Новые сообщения раздела  


 

 Тропическая зона / Torrid Zone (1940), Джеймс Кэгни, Энн Шеридан / приключения, комедия
surzhoks
  №1 Отправлено: 11.01.2017 - 19:52


Старожил

Группа: Аксакалы
Регистрация: 17.03.2008
Сообщений: 919
Обитает:
Последний раз был:
cегодня в 04:39




Тропическая зона / Torrid Zone


Страна: США
Студия: Warner Bros. Pictures
Жанр: приключения, комедия
Год выпуска: 1940
Продолжительность: 01:24:28
Режиссер: Уильям Кили / William Keighley
Композитор: Адольф Дойч / Adolph Deutsch
В ролях:
Джеймс Кэгни / James Cagney ... Nick Butler
Энн Шеридан / Ann Sheridan ... Lee Donley
Пэт О’Брайен / Pat O'Brien ... Steve Case
Энди Дивайн / Andy Devine ... Wally Davis
Хелен Винсон / Helen Vinson ... Gloria Anderson
Джером Кауэн / Jerome Cowan ... Bob Anderson
Джордж Тобиаш / George Tobias ... Rosario
Джордж Ривз / George Reeves ... Sancho
Виктор Килиан / Victor Kilian ... Carlos
Фрэнк Пулья / Frank Puglia ... Rodriguez
Джон Риджли / John Ridgely ... Gardner
Грэйди Саттон / Grady Sutton ... Sam
Пол Поркази / Paul Porcasi ... Garcia
Фрэнк Яконелли / Frank Yaconelli (в титрах: Frank Yaconnelli) ... Lopez
Дик Ботиллер / Dick Botiller (в титрах: Dick Boteler) ... Hernandez
Фрэнк Майо / Frank Mayo ... Shaffer
Джек Моуэр / Jack Mower ... McNamara
Пол Херст / Paul Hurst ... Daniels

Описание: Устав от разорительных набегов на плантации со стороны революционеров одной банановой республики, для восстановления порядка управляющий Стив Кэйс нанимает давнего друга - независимого и непредсказуемого Ника Батлера. Скоро на горизонте появляется красивая певица и аферистка Ли Донли, которая внесёт разлад в отношения Стива и Ника...
- Для съёмок сцен на плантациях на территории 5 акров киностудии Warner Bros. Studios. было посажено 950 банановых деревьев.

Доп. информация:
Огромное спасибо всем причастным к релизу:
рип - Магда,
перевод и озвучивание фильма - fiendover (Виктор Рутилов),
работа со звуком и реавторинг исходного DVD- AlekceyR76,
финансовая поддержка перевода и озвучивания фильма:
borisol55, Магда, Lafajet, jasenka, елена 22, yanaelisa, voostorg, борюська, spartakeynoir, sapog1960, leoder, Simpun

Архивы созданы RAR-архиватором с добавлением 3% на восстановление и снабжены sfv-проверочником.
Просьба к первому скачавшему отписаться о сохранности архивов на источнике раздачи.

Раздача рассчитана на 2 месяца. На просмотр линка и скачивание 5 дней!
В случае если вы встали в очередь, а затем отказываетесь от скачивания без объяснения причин, возможен отказ в последующих моих раздачах.



Полное имя :Torrid Zone.avi
Формат : AVI
Формат/Информация : Audio Video Interleave
Размер файла : 1,46 Гбайт
Продолжительность : 1 ч. 24 м.
Общий поток : 2468 Кбит/сек
Программа кодирования : VirtualDubMod 1.5.10.3 | www.virtualdub-fr.org || (build 2550/release)
Библиотека кодирования : VirtualDubMod build 2550/release

Видео
Идентификатор : 0
Формат : MPEG-4 Visual
Профиль формата : Advanced Simple@L5
Параметр BVOP формата : 2
Параметр QPel формата : Нет
Параметр GMC формата : Без точки перехода
Параметр матрицы формата : Default (H.263)
Идентификатор кодека : DX50
Идентификатор кодека/Подсказка : DivX 5
Продолжительность : 1 ч. 24 м.
Битрейт : 2262 Кбит/сек
Ширина : 688 пикселей
Высота : 528 пикселей
Соотношение сторон : 4:3
Частота кадров : 25,000 кадров/сек
Цветовое пространство : YUV
Субдискретизация насыщенности : 4:2:0
Битовая глубина : 8 бит
Тип развёртки : Прогрессивная
Метод сжатия : С потерями
Бит/(Пиксели*Кадры) : 0.249
Размер потока : 1,33 Гбайт (92%)
Библиотека кодирования : XviD 73

Аудио #1
Идентификатор : 1
Формат : AC-3
Формат/Информация : Audio Coding 3
Расширение режима : CM (complete main)
Параметр Endianness формата : Big
Идентификатор кодека : 2000
Продолжительность : 1 ч. 24 м.
Вид битрейта : Постоянный
Битрейт : 96,0 Кбит/сек
Каналы : 1 канал
Расположение каналов : Front: C
Частота : 48,0 КГц
Битовая глубина : 16 бит
Метод сжатия : С потерями
Размер потока : 58,0 Мбайт (4%)
Выравнивание : Разделение по промежуткам
Продолжительность промежутка : 40 мс. (1,00 видеокадр)
Время предзагрузки промежутка : 500 мс.

Аудио #2
Идентификатор : 2
Формат : AC-3
Формат/Информация : Audio Coding 3
Расширение режима : CM (complete main)
Параметр Endianness формата : Big
Идентификатор кодека : 2000
Продолжительность : 1 ч. 24 м.
Вид битрейта : Постоянный
Битрейт : 96,0 Кбит/сек
Каналы : 1 канал
Расположение каналов : Front: C
Частота : 48,0 КГц
Битовая глубина : 16 бит
Метод сжатия : С потерями
Размер потока : 58,0 Мбайт (4%)
Выравнивание : Разделение по промежуткам
Продолжительность промежутка : 40 мс. (1,00 видеокадр)
Время предзагрузки промежутка : 500 мс.




--------------------
Искусство откладывать деньги сводится к умению сказать “нет” потребительскому обществу.

Скрыть подпись


vjub58
№2 Отправлено: 11.01.2017 - 20:31


Практикующий эсквайр

Группа: Аксакалы
Регистрация: 6.12.2005
Сообщений: 4462
Обитает:
Последний раз был:
cегодня в 00:24




Спасибо, все ОК. pozdrav_buket.gif
Top
1 человек просматривает эту тему (1 гость)
« Предыдущая тема | Зарубежные фильмы | Следующая тема »


 



[Script Execution time: 0,0248]   [23 queries used]   [GZIP enabled]