Здравствуйте Гость ( Вход | Регистрация ) Выслать повторно письмо для активации
Вход
Ваше имя Пароль Забыли пароль?
Запомнить Вас?
Войти скрытым?



 Правила раздела Новые сообщения раздела  


 

 Сказание о Сиявуше (1976), Эпос,экранизация;Реж-Б.Кимягаров;Роли-Ф.Юсуфов,О.Коберидзе,С.Орлова
SanSan48
  №1 Отправлено: 27.09.2017 - 16:53


"Спартак" - ЧЕМПИОН!!!

Группа: Пользователи
Регистрация: 28.12.2009
Сообщений: 1833
Обитает:
На форуме с:
cегодня в 07:03




Сказание о Сиявуше (1976)



Жанр: Эпос, экранизация
Выпущено: СССР, Таджикфильм
Год выпуска: 1976
Премьера (СССР): Сентябрь 1977 (Москва), 5 декабря 1977 (СССР)
Премьера (мир): 8 марта 1979 (Венгрия)
Сценарист: Григорий Колтунов
Операторы: Заур Дахте, Давлат Худоназаров
Композитор: Ариф Меликов
Художники: Шавкат Абдусаламов, Леонид Шпонько, Р.Зудерман, Н.Павлова, В.Салимов
Монтажёр: А.Камагорова

Режиссёры: Борис (Бенсион) Кимягаров

В ролях:
Фархад Юсуфов (Марк Жозеф) … Сиявуш
Светлана Орлова … Судаба
Отар Коберидзе … Кавус
Бимболат (Бибо) Ватаев … Рустам
Хабибулло Абдуразаков … Бахрам
Турахон Ахмадханов … Тус
Дилором Камбарова … Фарида
Талгат Нигматулин … Тулан
Асли (Аслиддин) Бурханов … Мобед
Гурминдж Завкибеков … Гарсиваз
Ато Мухамеджанов
Мохаммед Рафиков
Алмас Аскерова … царица
Шамси Киямов … поэт
Имомберды Мингбаев … Демур

Описание: Третья, заключительная часть кинотрилогии по мотивам поэмы Абдулькасима Фирдоуси «Шах-Наме».
Фильм 1-й «Сиявуш и Судаба» повествует о воспитаннике Рустама - царевиче Сиявуше, сыне шаха Кавуса. Воспылала к нему непреодолимой страстью мачеха Судаба, а когда юноша отверг ее любовь, стала мстить ему. На землю Ирана вторгается войско Афрасиаба, но Сиявуш разбивает захватчиков. Афрасиаб просит мира и присылает заложников, но старый шах отказывается от мира и приказывает отрубить заложником головы.
Фильм 2-й «Под знаменем оленя». Потрясенный Сиявуш покидает родину. По дороге он встречает дочь Афрасиаба прекрасную Фарангиз и становится ее мужем. В диких степях создает он прекрасный город, населенный лишь молодыми. Но и здесь настигают Сиявуша интриги мстительной мачехи - Афрасиаб, поверив ее клевете, приказывает казнить зятя...

Дополнительная информация: Релиз:

Автор рипа: pmv

Большое спасибо за:
- исходный DVD5 и разрешение на раздачу - Доброму человеку

* Представленный в раздаче фильм из собрания ГФФ, выпущен в подарочном исполнении и является раритетом.

* Фильм раздаётся исключительно в ознакомительных целях и коммерческому распространению не подлежит. Поэтому ПРОСЬБА к скачавшим фильм НЕ РАЗДАВАТЬ данный рип на каких-либо сторонних ресурсах.

IMDb = 7,0/10 (7) - http://www.imdb.com/title/tt2262103/
Кинопоиск = 7.864 (96) - https://www.kinopoisk.ru/film/skazanie-o-si...he-1976-472270/

ВНИМАНИЕ!!! РИП ФОРМАТА mkv (кодек H.264) ВОСПРОИЗВОДИТСЯ НЕ НА ВСЕХ БЫТОВЫХ ВИДЕОПЛЕЕРАХ!!!

Параметры файла:
Название: Сказание о Сиявуше (1976).mkv
Качество видео: DVDrip
Формат видео: MKV
Размер: 1,46 ГБ (1 577 615 733 байт)
Продолжительность: 03:00:43
Видео: AVC (H264), 704@796x360 (2.21:1), 25 fps, 970 kb/s, 0.153 Bits/Pixel
Аудио: AC3, 48 KHz, stereo (2 ch), 192 kbps



General
Unique ID : 170749301928965096653244604483454144845 (0x80751E8E2B2B37F6B0FE46C8EDD4914D)
Complete name : D:\torrents\Сказание о Сиявуше (1976).mkv
Format : Matroska
Format version : Version 4 / Version 2
File size : 1.47 GiB
Duration : 3 h 0 min
Overall bit rate : 1 164 kb/s
Encoded date : UTC 2017-09-26 02:53:58
Writing application : mkvmerge v15.0.0 ('Duel with the Devil') 64-bit
Writing library : libebml v1.3.5 + libmatroska v1.4.5

Video
ID : 1
Format : AVC
Format/Info : Advanced Video Codec
Format profile : High@L4.1
Format settings, CABAC : Yes
Format settings, ReFrames : 16 frames
Codec ID : V_MPEG4/ISO/AVC
Duration : 3 h 0 min
Bit rate : 970 kb/s
Width : 704 pixels
Height : 360 pixels
Display aspect ratio : 2.2:1
Original display aspect ratio : 1.956
Frame rate mode : Constant
Frame rate : 25.000 FPS
Color space : YUV
Chroma subsampling : 4:2:0
Bit depth : 8 bits
Scan type : Progressive
Bits/(Pixel*Frame) : 0.153
Stream size : 1.22 GiB (83%)
Writing library : x264 core 130 r2273 b3065e6
Encoding settings : cabac=1 / ref=16 / deblock=1:0:0 / analyse=0x3:0x133 / me=umh / subme=10 / psy=1 / psy_rd=1.00:0.00 / mixed_ref=1 / me_range=24 / chroma_me=1 / trellis=2 / 8x8dct=1 / cqm=0 / deadzone=21,11 / fast_pskip=1 / chroma_qp_offset=-2 / threads=48 / lookahead_threads=2 / sliced_threads=0 / nr=0 / decimate=1 / interlaced=0 / bluray_compat=0 / constrained_intra=0 / bframes=8 / b_pyramid=2 / b_adapt=2 / b_bias=0 / direct=3 / weightb=1 / open_gop=0 / weightp=2 / keyint=250 / keyint_min=25 / scenecut=40 / intra_refresh=0 / rc_lookahead=60 / rc=2pass / mbtree=1 / bitrate=970 / ratetol=1.0 / qcomp=0.60 / qpmin=0 / qpmax=69 / qpstep=4 / cplxblur=20.0 / qblur=0.5 / ip_ratio=1.40 / aq=1:1.00
Language : Russian
Default : Yes
Forced : No

Audio
ID : 2
Format : AC-3
Format/Info : Audio Coding 3
Mode extension : CM (complete main)
Format settings, Endianness : Big
Codec ID : A_AC3
Duration : 3 h 0 min
Bit rate mode : Constant
Bit rate : 192 kb/s
Channel(s) : 2 channels
Channel positions : Front: L R
Sampling rate : 48.0 kHz
Frame rate : 31.250 FPS (1536 spf)
Bit depth : 16 bits
Compression mode : Lossy
Stream size : 248 MiB (16%)
Language : Russian
Default : Yes
Forced : No








МОИ РАЗДАЧИ НА ФЕНИКСе: ЗДЕСЬ




Это сообщение отредактировал SanSan48 - 27.09.2017 - 16:55


--------------------
"Спартак" - ЧЕМПИОН!!!

Скрыть подпись
pushistiy
№2 Отправлено: 27.09.2017 - 17:24


Старожил

Группа: Потребители
Регистрация: 8.12.2013
Сообщений: 614
Последний раз был:
вчера в 19:35




Что тут сказать ? sad.gif Эта трилогия - вершина "Таджикфильма". Такого, увы, в ближайшее столетие ожидать уже не приходится (если вообще ещё снимают кино в Таджикистане) pain25.gif
Top
Ushkuynik
№3 Отправлено: 27.09.2017 - 17:27


Посетитель

Группа: Потребители
Регистрация: 5.06.2015
Сообщений: 233
Обитает:
Последний раз был:
cегодня в 02:26




Архивы в порядке,мерси.
Top
SanSan48
№4 Отправлено: 27.09.2017 - 18:38


"Спартак" - ЧЕМПИОН!!!

Группа: Пользователи
Регистрация: 28.12.2009
Сообщений: 1833
Обитает:
На форуме с:
cегодня в 07:03




Цитата
( Ushkuynik @ 27.09.2017 - 17:27)
Архивы в порядке,мерси.

Ushkuynik, Благодарю за сообщение!

Приятного Всем просмотра!


--------------------
"Спартак" - ЧЕМПИОН!!!

Скрыть подпись
Top
baziss
№5 Отправлено: 28.09.2017 - 02:21


Аксакал обыкновенный

Группа: Аксакалы
Регистрация: 4.12.2005
Сообщений: 2493
Обитает:
Последний раз был:
cегодня в 02:38




Спасибо большое! А перераздача первых двух фильмов не планируется?


--------------------

Скрыть подпись
Top
SanSan48
№6 Отправлено: 28.09.2017 - 06:35


"Спартак" - ЧЕМПИОН!!!

Группа: Пользователи
Регистрация: 28.12.2009
Сообщений: 1833
Обитает:
На форуме с:
cегодня в 07:03




Цитата
baziss @ 28.09.2017 - 02:21
Спасибо большое! А перераздача первых двух фильмов не планируется?

http://fenixclub.com/index.php?act=Search&...wner&mid=120531

Это не перераздача. Это новые раздачи.
Смотрите по ссылке - эти 2 начальных фильма из кинотрилогии раздаются в новом качестве.


Это сообщение отредактировал SanSan48 - 28.09.2017 - 08:30


--------------------
"Спартак" - ЧЕМПИОН!!!

Скрыть подпись
Top
1 человек просматривает эту тему (1 гость)
« Предыдущая тема | Отечественное кино | Следующая тема »


 



[Script Execution time: 0,0355]   [24 queries used]   [GZIP enabled]