Здравствуйте Гость ( Вход | Регистрация ) Выслать повторно письмо для активации
Вход
Ваше имя Пароль Забыли пароль?
Запомнить Вас?
Войти скрытым?



 Правила раздела Новые сообщения раздела  


 

 Навеки женщина / Forever Female (1953), Джинджер Роджерс, Уильям Холден / драма
surzhoks
  №1 Отправлено: 6.12.2017 - 19:52


Старожил

Группа: Аксакалы
Регистрация: 17.03.2008
Сообщений: 972
Обитает:
Последний раз был:
14.12.2017 - 18:17




Навеки женщина / Forever Female


Страна: США
Студия: Paramount Pictures
Жанр: драма
Год выпуска: 1953
Продолжительность: 01:33:56
Режиссер: Ирвинг Раппер / Irving Rapper
Композитор: Виктор Янг / Victor Young
В ролях:
Джинджер Роджерс / Ginger Rogers ... Beatrice Page
Уильям Холден / William Holden ... Stanley Krown
Пол Дуглас / Paul Douglas ... E. Harry Phillips
Пэт Краули / Pat Crowley ... Clara Mootz aka Sally Carver
Джеймс Глисон / James Gleason ... Eddie Woods
Джесси Уайт / Jesse White ... Willie Wolfe
Марджори Рэмбо / Marjorie Rambeau ... Older Actress at Bar
Джордж Ривз / George Reeves ... George Courtland
Кинг Донован / King Donovan ... Playwright
Вик Перрин / Vic Perrin ... Scenic Designer
Расселл Гейдж / Russell Gaige ... Theatrical Producer
Мэрион Росс / Marion Ross (в титрах: Marian Ross) ... Patty
Ричард Шеннон / Richard Shannon ... Richard Shannon - Stage Manager

Описание: Драматург Стэнли Краун сочинил новую потрясающую пьесу, в которой главными персонажами являются мать и 19-летняя дочь. В образе матери он видит звезду Бродвея Беатрис Пейдж. Все считают, что эта постановка поможет карьере Беатрис после последнего театрального провала. Вся проблема в том, что Беатрис не желает принять свой возраст и отказывается от возрастной роли матери. Она желает сыграть роль дочери, совершенно игнорируя тот факт, что в подобных ролях могла бы быть хороша, но лет двадцать назад. К тому же роли дочери очень активно добивается молодая провинциальная актриса Салли Карвер..
По мотивам пьесы Дж. М. Барри “Розалинда”.

Золотой глобус, 1954 год
Победитель (1): Премия лучшей дебютантке (Пэт Краули)


Доп. информация:
Огромное спасибо всем причастным к релизу:
рип - Магда,
перевод и озвучивание фильма - Юрий Медведев,
работа со звуком AlekceyR76,
финансовая поддержка перевода и озвучивания фильма:
Lafajet, Магда, jasenka, yanaelisa, HippopotamusIV, cementit, sindzi, борюська, Ugo927, old76, duum100, voostorg, surzhoks, митя, spartakeynoir, GalaUkr, Лямдазонд, sapog1960, mumzik69, елена 22, leoder

Архивы созданы RAR-архиватором с добавлением 3% на восстановление и снабжены sfv-проверочником.
Просьба к первому скачавшему отписаться о сохранности архивов на источнике раздачи.

Раздача рассчитана на 2 месяца. На просмотр линка и скачивание 5 дней!
В случае если вы встали в очередь, а затем отказываетесь от скачивания без объяснения причин, возможен отказ в последующих моих раздачах.



Полное имя :Forever Female.HDRip.1953.avi
Формат : AVI
Формат/Информация : Audio Video Interleave
Размер файла : 1,58 Гбайт
Продолжительность : 1 ч. 33 м.
Общий поток : 2415 Кбит/сек
Программа кодирования : VirtualDubMod 1.5.4.1 (build 2178/release)
Библиотека кодирования : VirtualDubMod build 2178/release

Видео
Идентификатор : 0
Формат : MPEG-4 Visual
Профиль формата : Advanced Simple@L5
Параметр BVOP формата : 2
Параметр QPel формата : Нет
Параметр GMC формата : Без точки перехода
Параметр матрицы формата : Default (H.263)
Идентификатор кодека : DX50
Идентификатор кодека/Подсказка : DivX 5
Продолжительность : 1 ч. 33 м.
Битрейт : 2017 Кбит/сек
Ширина : 720 пикселей
Высота : 528 пикселей
Соотношение сторон : 4:3
Частота кадров : 23,976 кадра/сек
Цветовое пространство : YUV
Субдискретизация насыщенности : 4:2:0
Битовая глубина : 8 бит
Тип развёртки : Прогрессивная
Метод сжатия : С потерями
Бит/(Пиксели*Кадры) : 0.221
Размер потока : 1,32 Гбайт (84%)
Библиотека кодирования : XviD 73

Аудио #1
Идентификатор : 1
Формат : AC-3
Формат/Информация : Audio Coding 3
Расширение режима : CM (complete main)
Параметр Endianness формата : Big
Идентификатор кодека : 2000
Продолжительность : 1 ч. 33 м.
Вид битрейта : Постоянный
Битрейт : 192 Кбит/сек
Каналы : 1 канал
Расположение каналов : Front: C
Частота : 48,0 КГц
Битовая глубина : 16 бит
Метод сжатия : С потерями
Размер потока : 129 Мбайт (8%)
Выравнивание : Разделение по промежуткам
Продолжительность промежутка : 42 мс. (1,00 видеокадр)
Время предзагрузки промежутка : 500 мс.

Аудио #2
Идентификатор : 2
Формат : AC-3
Формат/Информация : Audio Coding 3
Расширение режима : CM (complete main)
Параметр Endianness формата : Big
Идентификатор кодека : 2000
Продолжительность : 1 ч. 33 м.
Вид битрейта : Постоянный
Битрейт : 192 Кбит/сек
Каналы : 1 канал
Расположение каналов : Front: C
Частота : 48,0 КГц
Битовая глубина : 16 бит
Метод сжатия : С потерями
Размер потока : 129 Мбайт (8%)
Выравнивание : Разделение по промежуткам
Продолжительность промежутка : 42 мс. (1,00 видеокадр)
Время предзагрузки промежутка : 500 мс.




Это сообщение отредактировал surzhoks - 8.12.2017 - 19:22


--------------------
Искусство откладывать деньги сводится к умению сказать “нет” потребительскому обществу.

Скрыть подпись


kyo
№2 Отправлено: 6.12.2017 - 20:58


Живёт здесь

Группа: Потребители
Регистрация: 21.07.2007
Сообщений: 1836
Обитает:
Последний раз был:
вчера в 20:07




Архивы в порядке, спасибо !
Top
pushistiy
№3 Отправлено: 8.12.2017 - 17:52


Старожил

Группа: Потребители
Регистрация: 8.12.2013
Сообщений: 614
Последний раз был:
вчера в 19:35




Цитата
surzhoks @ 6.12.2017 - 19:52
Режиссер: Генри Костер / Henry Koster

А чё за байда ? wow.gif На Рутрекере два файла, однако, и в обоих режиссёр - Ирвинг Раппер (ху из нот ?) pain25.gif
P.S. Генри Костер - это круто, блин..а И.Раппер (ху из... uzhas.gif )
Top
surzhoks
№4 Отправлено: 8.12.2017 - 19:26


Старожил

Группа: Аксакалы
Регистрация: 17.03.2008
Сообщений: 972
Обитает:
Последний раз был:
14.12.2017 - 18:17




Цитата
pushistiy @ 8.12.2017 - 20:52
Цитата
surzhoks @ 6.12.2017 - 19:52
Режиссер: Генри Костер / Henry Koster

А чё за байда ? wow.gif На Рутрекере два файла, однако, и в обоих режиссёр - Ирвинг Раппер (ху из нот ?) pain25.gif
P.S. Генри Костер - это круто, блин..а И.Раппер (ху из... uzhas.gif )

Спасибо за внимательность!
Раз уж пошла такая пьянка, то надо было написать, что в обоих файлах на рутрекере композитор Виктор Янг.
Да, надо мне все-таки попытаться как-то выспаться ...pospat_by.gif


--------------------
Искусство откладывать деньги сводится к умению сказать “нет” потребительскому обществу.

Скрыть подпись
Top
1 человек просматривает эту тему (1 гость)
« Предыдущая тема | Зарубежные фильмы | Следующая тема »


 



[Script Execution time: 0,0394]   [23 queries used]   [GZIP enabled]