Заходят многие - остаются лучшие!
Здравствуйте Гость ( Вход | Регистрация ) Выслать повторно письмо для активации
Вход
Ваше имя Пароль Забыли пароль?
Запомнить Вас?
Войти скрытым?



 Правила раздела Новые сообщения раздела  


 

 За власть Советов (1956) TVRip, Старое советское кино, экранизация
bornik
  №1 Отправлено: 6.01.2017 - 07:05


Воспоминания - это богатства старости.

Группа: Модераторы
Регистрация: 18.08.2008
Сообщений: 912
Обитает:
Последний раз был:
вчера в 14:07




За власть Советов (1956)



Предыдущая раздача 03.07.2008 г.

«За власть Советов» - советский военно-исторический фильм, снятый режиссёром Борисом Бунеевым на Киностудии имени Горького в 1956 году по одноимённому роману В. П. Катаева.

Год выпуска: 1956
Жанр: Военный, экранизация
Выпущено: СССР, Киностудия им. М. Горького
Продолжительность: 01:33:25
Премьера (СССР): 2 августа 1956 года

Режиссёр: Борис Бунеев

В ролях:
Борис Чирков … Гаврила Черноиваненко
Даниил Сагал … подпольщик Дружинин
Петя Мальцев … Петя Бачей
Сергей Курилов … Пётр Васильевич Бачей
Нина Никитина … Матрёна Терентьевна
Валентина Хмара … Валя Перепелицкая
Юлиан Панич … Святослав Марченко
Борис Тенин … Жора Колесничук
Лидия Сухаревская … Раиса Львовна
Анатолий Игнатьев … Цимбал
Илья Набатов … Ионел Миря
Алексей Алексеев … генерал
Гавриил Белов … Яковлев, сторож в порту
Анна Волгина … Клавдия Ивановна
Алексей Егоров … подполковник Воронов
Дмитрий Лысенко … шарманщик
Елена Максимова … мать Натальи
Валентина Пугачёва … Наталья
Иван Агафонов … партизан (нет в титрах)
Иван Гузиков … партизан (нет в титрах)
Борис Сазонов … сапожник
Андрей Цимбал … Платон Иванович Стрельбицкий
Алексей Ванин … эпизод
Марина Фигнер … эпизод
Александр Лебедев … эпизод
Марина Гаврилко … эпизод
Кузнецов Анатолий Петрович … "Бердичево" танкист механик-водитель

Сценарист: Валентин Катаев
Операторы: Леонид Акимов, Василий Дульцев, Маргарита Пилихина
Композитор: Михаил Раухвергер
Художники: Арсений Клопотовский, Петр Пашкевич

Описание: Июнь 1941 года.
Война прерывает давно задуманное путешествие московского юриста Бачея и его сына Пети в Одессу, памятную отцу по воспоминаниям детства, сыну — по рассказам отца. Посадив Петю на последний пароход, отправлявшийся из Одессы, Бачей уходит на фронт, не подозревая о том, что скоро встретится с сыном в Одесских катакомбах.








General
Complete name : C:\Cinema\За власть Советов (1956) TVRip.avi
Format : AVI
Format/Info : Audio Video Interleave
File size : 1.44 GiB
Duration : 1h 33mn
Overall bit rate : 2 205 Kbps
Writing application : VirtualDubMod 1.5.10.2 (build 2540/release)
Writing library : VirtualDubMod build 2540/release

Video
ID : 0
Format : MPEG-4 Visual
Format profile : Advanced Simple@L5
Format settings, BVOP : 2
Format settings, QPel : No
Format settings, GMC : No warppoints
Format settings, Matrix : Default (H.263)
Muxing mode : Packed bitstream
Codec ID : XVID
Codec ID/Hint : XviD
Duration : 1h 33mn
Bit rate : 2 003 Kbps
Width : 720 pixels
Height : 544 pixels
Display aspect ratio : 4:3
Frame rate : 25.000 fps
Color space : YUV
Chroma subsampling : 4:2:0
Bit depth : 8 bits
Scan type : Progressive
Compression mode : Lossy
Bits/(Pixel*Frame) : 0.205
Stream size : 1.31 GiB (91%)
Writing library : XviD 65

Audio
ID : 1
Format : MPEG Audio
Format version : Version 1
Format profile : Layer 3
Mode : Joint stereo
Mode extension : MS Stereo
Codec ID : 55
Codec ID/Hint : MP3
Duration : 1h 33mn
Bit rate mode : Constant
Bit rate : 192 Kbps
Channel(s) : 2 channels
Sampling rate : 48.0 KHz
Compression mode : Lossy
Stream size : 128 MiB (9%)
Alignment : Aligned on interleaves
Interleave, duration : 40 ms (1.00 video frame)
Interleave, preload duration : 504 ms
Writing library : LAME3.98r
Encoding settings : -m j -V 4 -q 3 -lowpass 18.6 -b 192


=================================

Исходником послужил релиз TVRip от трус'а, взятый с Рутрекера, за что ему БОЛЬШОЕ СПАСИБО!



Архивы созданы RAR-архиватором с добавлением 3% на восстановление и снабжены sfv-проверочником.
Просьба к первому скачавшему отписаться о сохранности архивов на источнике раздачи.

Раздача рассчитана на месяц.

ПРИЯТНОГО ВСЕМ ПРОСМОТРА !!!


Другое участие: трус – предоставление исходной записи
Фильм залит в архив.




--------------------
Безоблачная старость – это миф,
Поскольку наша память – ширь морская,
И к ночи начинается прилив,
Со дна обломки прошлого таская.
Игорь Губерман

Скрыть подпись


bor in
№2 Отправлено: 6.01.2017 - 08:19


Посетитель

Группа: Потребители
Регистрация: 26.01.2008
Сообщений: 179
Обитает:
Последний раз был:
вчера в 22:06




С архивом всё в порядке.Спасибо за фильм.
Top
bornik
№3 Отправлено: 6.01.2017 - 08:43


Воспоминания - это богатства старости.

Группа: Модераторы
Регистрация: 18.08.2008
Сообщений: 912
Обитает:
Последний раз был:
вчера в 14:07




Цитата
( bor in @ 6.01.2017 - 08:19)
С архивом всё в порядке.Спасибо за фильм.

И Вам, bor in, спасибо за добрую весть. happy_fly.gif


--------------------
Безоблачная старость – это миф,
Поскольку наша память – ширь морская,
И к ночи начинается прилив,
Со дна обломки прошлого таская.
Игорь Губерман

Скрыть подпись
Top
bornik
№4 Отправлено: 4.03.2017 - 02:42


Воспоминания - это богатства старости.

Группа: Модераторы
Регистрация: 18.08.2008
Сообщений: 912
Обитает:
Последний раз был:
вчера в 14:07




Всем спасибо.
Очередь закрыта. Если есть желающие - пишите в ПМ. wink2.gif


--------------------
Безоблачная старость – это миф,
Поскольку наша память – ширь морская,
И к ночи начинается прилив,
Со дна обломки прошлого таская.
Игорь Губерман

Скрыть подпись
Top
1 человек просматривает эту тему (1 гость)
« Предыдущая тема | Отечественное кино | Следующая тема »


 



[Script Execution time: 0,0303]   [24 queries used]   [GZIP enabled]