Здравствуйте Гость ( Вход | Регистрация ) Выслать повторно письмо для активации
Вход
Ваше имя Пароль Забыли пароль?
Запомнить Вас?
Войти скрытым?



 Правила раздела Новые сообщения раздела  


 

 Путешествие в молодость (1956) TVRip, Старое советское кино
bornik
  №1 Отправлено: 7.01.2017 - 03:40


Воспоминания - это богатства старости.

Группа: Модераторы
Регистрация: 18.08.2008
Сообщений: 800
Обитает:
Последний раз был:
cегодня в 02:58




Путешествие в молодость (1956)



Предыдущая раздача 25.12.2008 г.

«Путешествие в молодость» - советский чёрно-белый художественный фильм про спортсменов-альпинистов.

Год выпуска: 1956
Жанр: Комедия, спортивный фильм
Выпущено: СССР, Киевская киностудия
Продолжительность: 01:18:42
Премьера (СССР): 26 июня 1957 года

Режиссёры: Владимир Крайниченко, Григорий Липшиц

В ролях:
Евгений Бондаренко … Степан Павлович Назаров, директор завода
Тамара Чернова … Марина Степановна Назарова, дочь директора
Анатолий Кузнецов … Петров В.А., инженер, спортсмен-альпинист
Олег Анофриев … Крушинский, стиляга Кока, жених Марины
Илья Моровщик … Иванчук, токарь, альпинист
Тамара Яренко … Наташа
Зоя Василькова (в титрах З.Чекулаева) … Лена Маякова, альпинистка
Р. Кватадзе … Илуша
Владимир Борисенко (III) … эпизод
Сергей Петров … Петров, врач
Валентина Телегина … Марфуша, домработница Назаровых
Г. Цегарешвили … альпинист
Гиули Чохонелидзе … альпинист
Евгений Моргунов … завхоз альплагеря «Звёздочка»

Сценарист: Александр Филимонов
Операторы: Валерий Ильенко, Валентин Орлянкин, Виталий Филиппов
Композиторы: Оскар Сандлер, Никита Богословский
Художник: Феликс Вакериса-Гальдос

Описание: Директор завода Назаров и инженер Петров постоянно конфликтуют. Оба мечтают об отпуске, чтобы на какое-то время побыть друг без друга. Так случилось, что они оказались в одном альпинистском отряде. Тут главным оказался Петров. Понадобилась отрядная жизнь и немалые трудности, чтобы Назаров понял, каким мужественным, человечным и цельным является Петров.


• Банеры с названием фильма, после рекламных вставок и анонсом следующих передач в раздаче присутствуют.









General
Complete name : C:\Cinema\Путешествие в молодость (1956) TVRip.avi
Format : AVI
Format/Info : Audio Video Interleave
File size : 1.32 GiB
Duration : 1h 18mn
Overall bit rate : 2 405 Kbps
Writing application : VirtualDubMod 1.5.10.2 (build 2540/release)
Writing library : VirtualDubMod build 2540/release

Video
ID : 0
Format : MPEG-4 Visual
Format profile : Advanced Simple@L5
Format settings, BVOP : 2
Format settings, QPel : No
Format settings, GMC : No warppoints
Format settings, Matrix : Default (H.263)
Muxing mode : Packed bitstream
Codec ID : XVID
Codec ID/Hint : XviD
Duration : 1h 18mn
Bit rate : 2 203 Kbps
Width : 720 pixels
Height : 544 pixels
Display aspect ratio : 4:3
Frame rate : 25.000 fps
Color space : YUV
Chroma subsampling : 4:2:0
Bit depth : 8 bits
Scan type : Progressive
Compression mode : Lossy
Bits/(Pixel*Frame) : 0.225
Stream size : 1.21 GiB (92%)
Writing library : XviD 65

Audio
ID : 1
Format : MPEG Audio
Format version : Version 1
Format profile : Layer 3
Mode : Joint stereo
Mode extension : MS Stereo
Codec ID : 55
Codec ID/Hint : MP3
Duration : 1h 18mn
Bit rate mode : Constant
Bit rate : 192 Kbps
Channel(s) : 2 channels
Sampling rate : 48.0 KHz
Compression mode : Lossy
Stream size : 108 MiB (8%)
Alignment : Aligned on interleaves
Interleave, duration : 40 ms (1.00 video frame)
Interleave, preload duration : 504 ms
Writing library : LAME3.98r
Encoding settings : -m j -V 4 -q 3 -lowpass 18.6 -b 192


=================================

Исходником послужил релиз TV от Valeronius, взятый с Рутрекера, за что ему БОЛЬШОЕ СПАСИБО!



Архивы созданы RAR-архиватором с добавлением 3% на восстановление и снабжены sfv-проверочником.
Просьба к первому скачавшему отписаться о сохранности архивов на источнике раздачи.

Раздача рассчитана на месяц.

ПРИЯТНОГО ВСЕМ ПРОСМОТРА !!!



Другое участие: Valeronius – предоставление исходной записи




--------------------
Безоблачная старость – это миф,
Поскольку наша память – ширь морская,
И к ночи начинается прилив,
Со дна обломки прошлого таская.
Игорь Губерман

Скрыть подпись


fenixclub0313
№2 Отправлено: 7.01.2017 - 08:28


Завсегдатай

Группа: Аксакалы
Регистрация: 8.03.2013
Сообщений: 325
Последний раз был:
позавчера в 18:39




bornik, архивы в порядке.
Top
bornik
№3 Отправлено: 7.01.2017 - 08:35


Воспоминания - это богатства старости.

Группа: Модераторы
Регистрация: 18.08.2008
Сообщений: 800
Обитает:
Последний раз был:
cегодня в 02:58




Цитата
( fenixclub0313 @ 7.01.2017 - 08:28)
bornik, архивы в порядке.

И Вам, fenixclub0313, спасибо за добрую весть. happy_fly.gif


--------------------
Безоблачная старость – это миф,
Поскольку наша память – ширь морская,
И к ночи начинается прилив,
Со дна обломки прошлого таская.
Игорь Губерман

Скрыть подпись
Top
SanSan48
№4 Отправлено: 7.01.2017 - 11:46


"Спартак" - ЧЕМПИОН!!!

Группа: Пользователи
Регистрация: 28.12.2009
Сообщений: 1729
Обитает:
Последний раз был:
вчера в 20:19




Цитата
bornik @ 7.01.2017 - 03:40
Цитата

«Путешествие в молодость» (1956)

А хорошо бы было вернуться опять в те времена, совершить
путешествие в прошлое. Не виртуальное, а реальное...

Когда-то, наверняка, так можно будет путешествовать, но это уже без нас...


--------------------
"Спартак" - ЧЕМПИОН!!!

Скрыть подпись
Top
bornik
№5 Отправлено: 7.01.2017 - 12:16


Воспоминания - это богатства старости.

Группа: Модераторы
Регистрация: 18.08.2008
Сообщений: 800
Обитает:
Последний раз был:
cегодня в 02:58




Цитата
( SanSan48 @ 7.01.2017 - 11:46)
Цитата
bornik @ 7.01.2017 - 03:40
Цитата

«Путешествие в молодость» (1956)

А хорошо бы было вернуться опять в те времена, совершить
путешествие в прошлое. Не виртуальное, а реальное...

Когда-то, наверняка, так можно будет путешествовать, но это уже без нас...

Действительно, Сан Саныч, это уже без нас... sad.gif


--------------------
Безоблачная старость – это миф,
Поскольку наша память – ширь морская,
И к ночи начинается прилив,
Со дна обломки прошлого таская.
Игорь Губерман

Скрыть подпись
Top
cherkasy
№6 Отправлено: 7.01.2017 - 22:01


Завсегдатай

Группа: Потребители
Регистрация: 30.12.2011
Сообщений: 343
Последний раз был:
16.01.2017 - 18:57




спасибо
Top
bornik
№7 Отправлено: 8.01.2017 - 02:48


Воспоминания - это богатства старости.

Группа: Модераторы
Регистрация: 18.08.2008
Сообщений: 800
Обитает:
Последний раз был:
cегодня в 02:58




Цитата
( cherkasy @ 7.01.2017 - 22:01)
спасибо

Приятного просмотра, cherkasy!


--------------------
Безоблачная старость – это миф,
Поскольку наша память – ширь морская,
И к ночи начинается прилив,
Со дна обломки прошлого таская.
Игорь Губерман

Скрыть подпись
Top
1 человек просматривает эту тему (1 гость)
« Предыдущая тема | Отечественное кино | Следующая тема »


 



[Script Execution time: 0,0246]   [23 queries used]   [GZIP enabled]