Заходят многие - остаются лучшие!
Здравствуйте Гость ( Вход | Регистрация ) Выслать повторно письмо для активации
Вход
Ваше имя Пароль Забыли пароль?
Запомнить Вас?
Войти скрытым?



Новые сообщения раздела  

 

 Споёмте, друзья! Василий Соловьёв-Седой (реж. А.Симонов, 1974), биографический, музыкальный
Nadejdaenergia
  №1 Отправлено: 8.11.2016 - 10:46


Когда всё плохое уходит, остаётся только хорошее.

Группа: Модераторы
Регистрация: 21.03.2012
Сообщений: 5572
Обитает:
На форуме с:
cегодня в 13:00




Споёмте, друзья! Василий Соловьёв-Седой


Описание
Васи́лий Па́влович Соловьёв-Седо́й (настоящая фамилия — Соловьёв; 1907—1979) — российский советский композитор, автор музыки для балета, театральных постановок и большого числа кинофильмов. Один из самых значительных композиторов-песенников в России XX века.

Оригинальное название: Споёмте, друзья! Василий Соловьёв-Седой
Производство: СССР
Год выпуска: 1974

Режиссер: Алексей Симонов
Оператор: К.Хлопунов
Художник: В.Степанов
Звукооператор: Т.Фрадис
Редактор: Ж.Турчилина
Директор: И.Рудакова

Описание:
Уникальные съемки композитора, рассказывающего о времени и о себе, о том, как и почему среди множества музыкальных жанров он выбрал песенный, а также об истории лучших своих песен: "Подмосковные вечера", "Где же вы теперь, друзья-однополчане?", "Пора в путь-дорогу", "Если бы парни всей земли", "Песня о Ленинграде".

В фильме снимались: Глеб Горбовский, Владимир Заманский, Валерий Золотухин, Валентин Никулин, Эдуард Хиль, вокально-инструментальный ансамбль «Самоцветы» технического училища №6 г.Георгиу-Деж Воронежской области


Complete name : Spoemte.druzia.V.Soloviev-Sedoj.1974.TVRip.fenixclub.com.avi
Format : AVI
Format/Info : Audio Video Interleave
File size : 839 MiB
Duration : 55mn 47s
Overall bit rate : 2 101 Kbps
Writing application : VirtualDubMod 1.5.10.3 | www.virtualdub-fr.org || (build 2550/release)
Writing library : VirtualDubMod build 2550/release

Video
ID : 0
Format : MPEG-4 Visual
Format profile : Advanced Simple@L5
Format settings, BVOP : 1
Format settings, QPel : No
Format settings, GMC : No warppoints
Format settings, Matrix : Default (MPEG)
Codec ID : DX50
Codec ID/Hint : DivX 5
Duration : 55mn 47s
Bit rate : 1 900 Kbps
Width : 720 pixels
Height : 544 pixels
Display aspect ratio : 4:3
Frame rate : 25.000 fps
Color space : YUV
Chroma subsampling : 4:2:0
Bit depth : 8 bits
Scan type : Progressive
Compression mode : Lossy
Bits/(Pixel*Frame) : 0.194
Stream size : 758 MiB (90%)
Writing library : XviD 1.2.1 (UTC 2008-12-04)

Audio
ID : 1
Format : MPEG Audio
Format version : Version 1
Format profile : Layer 3
Codec ID : 55
Codec ID/Hint : MP3
Duration : 55mn 47s
Bit rate mode : Constant
Bit rate : 192 Kbps
Channel(s) : 2 channels
Sampling rate : 48.0 KHz
Compression mode : Lossy
Stream size : 76.6 MiB (9%)
Alignment : Aligned on interleaves
Interleave, duration : 40 ms (1.00 video frame)
Interleave, preload duration : 504 ms
Writing library : LAME3.99r
Encoding settings : -m s -V 4 -q 0 -lowpass 18.6 -b 192






За исходник MPG2 благодарность Земля.

В качестве бонуса добавлен документальный фильм «Алексей Симонов. Кусочки жизни… В.Соловьёв-Седой».

Режиссер Алексей Симонов рассказывает о том, каким он увидел Василия Соловьева-Седого из-за камеры и что он ощущал во время съемок фильма, каким композитор был в обычной жизни. Симонов поведает о том, чем явились встречи с Соловьевым-Седым для становления его собственной личности, как историческое время влияло на представление о личности композитора, попробует раскрыть его феномен.


Complete name : Alexej.Simonov.Kuso4ki.zjizni.V.Soloviev-Sedoj.2016.fenixclub.com.avi
Format : AVI
Format/Info : Audio Video Interleave
File size : 538 MiB
Duration : 26mn 29s
Overall bit rate : 2 839 Kbps
Writing application : VirtualDubMod 1.5.10.3 | www.virtualdub-fr.org || (build 2550/release)
Writing library : VirtualDubMod build 2550/release

Video
ID : 0
Format : MPEG-4 Visual
Format profile : Advanced Simple@L5
Format settings, BVOP : 1
Format settings, QPel : No
Format settings, GMC : No warppoints
Format settings, Matrix : Default (MPEG)
Codec ID : DX50
Codec ID/Hint : DivX 5
Duration : 26mn 29s
Bit rate : 2 702 Kbps
Width : 704 pixels
Height : 416 pixels
Display aspect ratio : 1.692
Frame rate : 25.000 fps
Color space : YUV
Chroma subsampling : 4:2:0
Bit depth : 8 bits
Scan type : Progressive
Compression mode : Lossy
Bits/(Pixel*Frame) : 0.369
Stream size : 512 MiB (95%)
Writing library : XviD 1.2.1 (UTC 2008-12-04)

Audio
ID : 1
Format : MPEG Audio
Format version : Version 1
Format profile : Layer 3
Codec ID : 55
Codec ID/Hint : MP3
Duration : 26mn 29s
Bit rate mode : Constant
Bit rate : 128 Kbps
Channel(s) : 2 channels
Sampling rate : 48.0 KHz
Compression mode : Lossy
Stream size : 24.3 MiB (5%)
Alignment : Aligned on interleaves
Interleave, duration : 40 ms (1.00 video frame)
Interleave, preload duration : 504 ms
Writing library : LAME3.99r
Encoding settings : -m s -V 4 -q 2 -lowpass 17 -b 128





На каждый фильм самостоятельный многотомный архив RAR, снабжённый sfv-проверочником. В линк в отдельную папку добавлен исходник MPG2. Раздача рассчитана на месяц.

Просьба к первым скачавшим отписаться о состоянии архивов.




BLANT57
№2 Отправлено: 8.11.2016 - 11:59


Завсегдатай

Группа: Потребители
Регистрация: 18.11.2008
Сообщений: 320
Обитает:
Последний раз был:
cегодня в 12:11




Все скачалось хорошо
Top
Nadejdaenergia
№3 Отправлено: 8.11.2016 - 12:08


Когда всё плохое уходит, остаётся только хорошее.

Группа: Модераторы
Регистрация: 21.03.2012
Сообщений: 5572
Обитает:
На форуме с:
cегодня в 13:00




BLANT57, благодарю!
Top
cherkasy
№4 Отправлено: 17.11.2016 - 23:30


Завсегдатай

Группа: Потребители
Регистрация: 30.12.2011
Сообщений: 466
Последний раз был:
вчера в 13:22




спасибо
Top
Nadejdaenergia
№5 Отправлено: 16.12.2016 - 11:23


Когда всё плохое уходит, остаётся только хорошее.

Группа: Модераторы
Регистрация: 21.03.2012
Сообщений: 5572
Обитает:
На форуме с:
cегодня в 13:00




Все заливы на Облако сохраняются. При желании скачать пишите в ПМ.
Top
1 человек просматривает эту тему (1 гость)
« Предыдущая тема | Мир и люди искусства | Следующая тема »


 



[Script Execution time: 0,0300]   [23 queries used]   [GZIP enabled]