Заходят многие - остаются лучшие!
Здравствуйте Гость ( Вход | Регистрация ) Выслать повторно письмо для активации
Вход
Ваше имя Пароль Забыли пароль?
Запомнить Вас?
Войти скрытым?



 Правила раздела Новые сообщения раздела  


 

 Свадьба Иоанна Асена (2 серии) / Сватбите на Йоан Асен / Svatbite na Yoan Asen / The Weddings of King Ioan Assen (1975), История,биография;Реж-В.Цанков:Роли-А.Карамитев,К.Цонев,Н.Коканова
SanSan48
  №1 Отправлено: 27.04.2019 - 09:58


"Спартак" - ЧЕМПИОН!!!

Группа: Пользователи
Регистрация: 28.12.2009
Сообщений: 2050
Обитает:
Последний раз был:
cегодня в 08:08




Свадьба Иоанна Асена (2 серии) / Сватбите на Йоан Асен / Svatbite na Yoan Asen (1975)



Жанр: Драма, история, биография
Выпущено: Болгария, Киностудия «Бояна» (Boyana Film)
Год выпуска: 1975
Премьера (мир): 3 января 1975 (Болгария), 10 сентября 1976 (Германия (ГДР)), 7 июля 1977 (Венгрия)
Сценарист: Евгений Константинов / Evgeni Konstantinov
Оператор: Венец Димитров / Venets Dimitrov
Композиторы: Борис Карадимчев / Boris Karadimchev, Георги Минчев / Georgi Minchev
Художники: Мария Иванова / Mariya Ivanova, Ирина Маричкова / Irina Marichkova, Асен Митев / Asen Mitev, Мария Ножарова / Maria Nozharova, Энчо Пиронков / Encho Pironkov, Луиза Андонова / Luiza Andonova, Снежана Антонова / Snezhana Antonova, Мариана Бочева / Mariana Bocheva, Марина Попова / Marina Popova, Майски Желязков / Mayski Zhelyazkov
Монтажёры: Тотка Крыстева / Totka Krysteva

Режиссер: Вили Цанков / Vili Tzankov

В ролях:
Апостол Карамитев / Apostol Karamitev ... Йоан Асен / Yoan Asen
Коста Цонев / Kosta Tsonev ... Княз Александър, Йоан Асен / Aleksander, Yoan Asen
Иван Кондов / Ivan Kondov ... Патриарх Йоаким / Patriarh Yoakim
Невена Коканова / Nevena Kokanova ... Мария / Maria
Стефан Данаилов / Stefan Danailov ... Бургундецът / Burgundetza
Цветана Манева / Tzvetana Maneva ... Анна / Ana
Анета Сотирова / Aneta Sotirova ... Белослава / Beloslava
Адриана Палюшева / Adriana Palyusheva ... Целгуба / Tzelguba
Антон Горчев / Anton Gorchev ... Теодор Комнин / Teodor Komnin
Виолета Гиндева / Violeta Gindeva ... Ирина / Irina
Георги Черкелов / Georgi Cherkelov ... Император Йоан III Дука Ватаци / Vatatzi
Бруно Оя / Bruno O'Ya ... Князь Юрий / Knyaz Yuriy
Богомил Симеонов / Bogomil Simeonov ... Король Андрей / Kral Andrey
Иванка Димитрова / Ivanka Dimitrova ... Игуменья / Igumenkata
Стефан Илиев / Stefan Iliev ...
Стефан Пейчев / Stefan Pejchev

Описание: Начало 13 века. Византийская империя приходит в упадок.
После смерти царя Калояна молодой Иоанн Асен и его брат Александр были изгнаны со своей родины претендентом на престол Борилом. Спустя годы, при поддержке русского князя Юрия, Иоанн Асен возвращается в столицу и восседает на престол, как правопреемник. Затяжные и безуспешные войны с врагами Болгарии заставляют Иоанна Асена, как можно дольше сохранять мир. Для этого он вынужден несколько раз жениться и даже отправить любимую женщину в монастырь…

Дополнительная информация: Релиз:

Исходник найден в сети.

Автор рипа: pmv

* В фильме «Свадьба Иоанна Асена» Коста Цонев сыграл две роли: Александра, брата короля Иоанна Асена, и самого Иоанна. Он вынужденно заменил Апостола Карамитева, исполнителя главной роли Иоанна Асена, который умер в 1973 году во время съемок фильма.
Несколько поколений кинозрителей помнят Косту Цонева в роли Эмиля Боева, принесшую ему необычайную популярность в фильмах «Господин Никто» и «Нет ничего лучше плохой погоды», созданных по книгами Богомила Райнова о болгарской разведке.

IMDb = 7,3/10 (121) - https://www.imdb.com/title/tt0279447/
Кинопоиск = - (5) - https://www.kinopoisk.ru/film/svadba-ioanna...ena-1975-66718/

ВНИМАНИЕ!!! РИП ФОРМАТА mkv (кодек H.264) ВОСПРОИЗВОДИТСЯ НЕ НА ВСЕХ БЫТОВЫХ ВИДЕОПЛЕЕРАХ!!!

Параметры файла:
Название: The Weddings of Joаhn Assen (1975, bul+sub_rus,eng,ger,fre,spa,bul).mkv
Качество видео: HDRip-AVC
Формат видео: MKV
Размер: 2,12 ГБ (2 279 747 268 байт)
Продолжительность: 02:31:23
Перевод: Субтитры
Субтитры: русские
Субтитры: английские, немецкие, французские, испанские, болгарские
Формат субтитров: prerendered (IDX+SUB)
Оригинальная аудиодорожка: болгарский
Видео: AVC (H264), 1152x496 (2.35:1), 25 fps, 1800 kb/s, 0.126 Bits/Pixel
Аудио #1: AC3, 44.1 KHz, stereo (2 ch), 192 kbps – болгарский



General
Unique ID : 129356281134360427534902746136440079268 (0x61511D1081BDEA8314F35BC1985603A4)
Complete name : D:\torrents\The Weddings of Joаhn Assen (1975, bul+sub_rus,eng,ger,fre,spa,bul).mkv
Format : Matroska
Format version : Version 4 / Version 2
File size : 2.12 GiB
Duration : 2 h 31 min
Overall bit rate : 2 008 kb/s
Encoded date : UTC 2019-04-24 19:12:54
Writing application : mkvmerge v33.1.0 ('Primrose') 64-bit
Writing library : libebml v1.3.7 + libmatroska v1.5.0

Video
ID : 1
Format : AVC
Format/Info : Advanced Video Codec
Format profile : High@L4.1
Format settings, CABAC : Yes
Format settings, RefFrames : 14 frames
Codec ID : V_MPEG4/ISO/AVC
Duration : 2 h 31 min
Bit rate : 1 800 kb/s
Width : 1 152 pixels
Height : 496 pixels
Display aspect ratio : 2.35:1
Frame rate mode : Constant
Frame rate : 25.000 FPS
Color space : YUV
Chroma subsampling : 4:2:0
Bit depth : 8 bits
Scan type : Progressive
Bits/(Pixel*Frame) : 0.126
Stream size : 1.90 GiB (90%)
Writing library : x264 core 146 r2538 121396c
Encoding settings : cabac=1 / ref=14 / deblock=1:0:0 / analyse=0x3:0x133 / me=umh / subme=10 / psy=1 / psy_rd=1.00:0.00 / mixed_ref=1 / me_range=24 / chroma_me=1 / trellis=2 / 8x8dct=1 / cqm=0 / deadzone=21,11 / fast_pskip=1 / chroma_qp_offset=-2 / threads=48 / lookahead_threads=3 / sliced_threads=0 / nr=0 / decimate=1 / interlaced=0 / bluray_compat=0 / constrained_intra=0 / bframes=8 / b_pyramid=2 / b_adapt=2 / b_bias=0 / direct=3 / weightb=1 / open_gop=0 / weightp=2 / keyint=250 / keyint_min=25 / scenecut=40 / intra_refresh=0 / rc_lookahead=60 / rc=2pass / mbtree=1 / bitrate=1800 / ratetol=1.0 / qcomp=0.60 / qpmin=0 / qpmax=69 / qpstep=4 / cplxblur=20.0 / qblur=0.5 / ip_ratio=1.40 / aq=1:1.00
Language : Bulgarian
Default : Yes
Forced : No

Audio
ID : 2
Format : AC-3
Format/Info : Audio Coding 3
Format settings, Endianness : Big
Codec ID : A_AC3
Duration : 2 h 31 min
Bit rate mode : Constant
Bit rate : 192 kb/s
Channel(s) : 2 channels
Channel positions : Front: L R
Sampling rate : 44.1 kHz
Frame rate : 28.711 FPS (1536 SPF)
Bit depth : 16 bits
Compression mode : Lossy
Stream size : 208 MiB (10%)
Language : Bulgarian
Service kind : Complete Main
Default : Yes
Forced : No

Text #1
ID : 3
Format : VobSub
Muxing mode : zlib
Codec ID : S_VOBSUB
Codec ID/Info : Picture based subtitle format used on DVDs
Duration : 2 h 30 min
Bit rate : 3 432 b/s
Count of elements : 979
Stream size : 3.70 MiB (0%)
Language : Russian
Default : Yes
Forced : Yes

Text #2
ID : 4
Format : VobSub
Muxing mode : zlib
Codec ID : S_VOBSUB
Codec ID/Info : Picture based subtitle format used on DVDs
Duration : 2 h 30 min
Bit rate : 3 745 b/s
Count of elements : 980
Stream size : 4.04 MiB (0%)
Language : English
Default : No
Forced : No

Text #3
ID : 5
Format : VobSub
Muxing mode : zlib
Codec ID : S_VOBSUB
Codec ID/Info : Picture based subtitle format used on DVDs
Duration : 2 h 30 min
Bit rate : 4 001 b/s
Count of elements : 980
Stream size : 4.31 MiB (0%)
Language : German
Default : No
Forced : No

Text #4
ID : 6
Format : VobSub
Muxing mode : zlib
Codec ID : S_VOBSUB
Codec ID/Info : Picture based subtitle format used on DVDs
Duration : 2 h 30 min
Bit rate : 3 475 b/s
Count of elements : 980
Stream size : 3.74 MiB (0%)
Language : French
Default : No
Forced : No

Text #5
ID : 7
Format : VobSub
Muxing mode : zlib
Codec ID : S_VOBSUB
Codec ID/Info : Picture based subtitle format used on DVDs
Duration : 2 h 30 min
Bit rate : 3 515 b/s
Count of elements : 980
Stream size : 3.79 MiB (0%)
Language : Spanish
Default : No
Forced : No

Text #6
ID : 8
Format : VobSub
Muxing mode : zlib
Codec ID : S_VOBSUB
Codec ID/Info : Picture based subtitle format used on DVDs
Duration : 2 h 30 min
Bit rate : 3 412 b/s
Count of elements : 948
Stream size : 3.68 MiB (0%)
Language : Bulgarian
Default : No
Forced : No








МОИ РАЗДАЧИ НА ФЕНИКСе: ЗДЕСЬ




Это сообщение отредактировал SanSan48 - 27.04.2019 - 12:08


--------------------
"Спартак" - ЧЕМПИОН!!!

Скрыть подпись


18052006
№2 Отправлено: 27.04.2019 - 13:47


Посетитель

Группа: Потребители
Регистрация: 29.04.2010
Сообщений: 150
Обитает:
Последний раз был:
вчера в 17:32




Архивы в порядке, спасибо!
Top
SanSan48
№3 Отправлено: 27.04.2019 - 14:50


"Спартак" - ЧЕМПИОН!!!

Группа: Пользователи
Регистрация: 28.12.2009
Сообщений: 2050
Обитает:
Последний раз был:
cегодня в 08:08




Цитата
( 18052006 @ 27.04.2019 - 13:47)
Архивы в порядке, спасибо!

18052006, Благодарю за сообщение!

Приятного всем просмотра!


--------------------
"Спартак" - ЧЕМПИОН!!!

Скрыть подпись
Top
1 человек просматривает эту тему (1 гость)
« Предыдущая тема | Зарубежные фильмы | Следующая тема »


 



[Script Execution time: 0,0362]   [24 queries used]   [GZIP enabled]