Заходят многие - остаются лучшие!
Здравствуйте Гость ( Вход | Регистрация ) Выслать повторно письмо для активации
Вход
Ваше имя Пароль Забыли пароль?
Запомнить Вас?
Войти скрытым?



 Правила раздела Новые сообщения раздела  


 

 Досье на Золотого Гуся / The File of the Golden Goose (1969), Триллер,криминал;Реж.-С.Уонамейкер;Роли-Юл Бриннер,Ч.Грэй,Э.Вудворд
SanSan48
  №1 Отправлено: 21.09.2019 - 12:32


"Спартак" - ЧЕМПИОН!!!

Группа: Пользователи
Регистрация: 28.12.2009
Сообщений: 2087
Обитает:
Последний раз был:
вчера в 18:38




Досье на "Золотого Гуся" / The File of the Golden Goose (1969)



Предыдущая раздача:
13.09.2012 (DVDrip)

Жанр: Драма, триллер, криминал
Выпущено: Великобритания, Caralan Productions Ltd., Edward Small Productions
Год выпуска: 1969
Премьера (мир): июнь 1969 (Великобритания), 2 октября 1969 (США, Нью-Йорк), 10 ноября 1969 (Дания), 6 декабря 1969 (Япония)
Сценаристы: Джон С. Хиггинс / John C. Higgins, Роберт Э. Кент / Robert E. Kent
Оператор: Кен Ходжис / Ken Hodges
Композитор: Гарри Робертсон / Harry Robertson
Художники: Джордж Провис / George Provis
Монтажёр: Освальд Хафенрихтер / Oswald Hafenrichter

Режиссёр: Сэм Уонамейкер / Sam Wanamaker

В ролях:
Юл Бриннер / Yul Brynner ... Peter Novak
Чарльз Грэй / Charles Gray ... The Owl
Эдвард Вудворд / Edward Woodward ... Arthur Thompson
Джон Барри / John Barrie ... Supt. Sloane
Адриенн Корри / Adrienne Corri ... Angela Richmond
Грэм Кроуден / Graham Crowden ... Smythe
Уолтер Готелл / Walter Gotell ... George Leeds
Энтони Джейкобс / Anthony Jacobs ... Firenos
Айвор Дин / Ivor Dean ... Reynolds
Хью МакДермотт / Hugh McDermott ... Ray Moss
Хилари Хит / Hilary Heath ... Ann Marlowe
Кен Джонс / Ken Jones ... Stroud
Карел Степанек / Karel Stepanek ... Mueller
Бернард Арчард / Bernard Archard ... Collins
Джеффри Рид / Geoffrey Reed ... Martin
Джо Корнелиус / Joe Cornelius ... Gordie

Описание: Американский детектив Петер Новак (Юл Бриннер) послан в Британию выслеживать важного международного преступника фальшивомонетчика. Петер Новак и его коллега Томпсон (Эдвард Вудворд) начинают работать под прикрытием, чтобы разоблачить банду фальшивомонетчиков…

Дополнительная информация: Релиз:

Исходник найден в сети.

Автор рипа: pmv

Большое спасибо за:
- аудиодорожку с русской озвучкой - javoronkovv, Simpun
- синхронизацию звуковой дорожки с советским дубляжом - pmv

* Русская озвучка наложена на аудио с немецким дубляжом.

IMDb = 5,5/10 (383) - https://www.imdb.com/title/tt0064328/
Кинопоиск = - (36) - https://www.kinopoisk.ru/film/25817/

ВНИМАНИЕ!!! РИП ФОРМАТА mkv (кодек H.264) ВОСПРОИЗВОДИТСЯ НЕ НА ВСЕХ БЫТОВЫХ ВИДЕОПЛЕЕРАХ!!!

Параметры файла:
Название: File of the Golden Goose (1969, rus_VO+eng).mkv
Качество видео: HDRip-AVC
Формат видео: MKV
Размер: 2,06 ГБ (2 221 632 733 байт)
Продолжительность: 01:46:20
Перевод: Одноголосый закадровый - Золотухин
Оригинальная аудиодорожка: английская
Видео: AVC (H264), 1072x648 (1.66:1), 23.976 fps, 2400 kbps, 0.144 Bits/Pixel
Аудио #1: AC3, 48 KHz, stereo (2 ch), 192 kbps – русский
Аудио #2: AC3, 48 KHz, stereo (2 ch), 192 kbps - английский



General
Unique ID : 116643449370379104321698261629790078296 (0x57C0B610EF4841FDCFE829F4F4504558)
Complete name : D:\torrents\The File of the Golden Goose (1969, rus_VO+eng).mkv
Format : Matroska
Format version : Version 4 / Version 2
File size : 2.07 GiB
Duration : 1 h 46 min
Overall bit rate : 2 786 kb/s
Encoded date : UTC 2019-09-19 05:14:12
Writing application : mkvmerge v37.0.0 ('Leave It') 64-bit
Writing library : libebml v1.3.9 + libmatroska v1.5.2

Video
ID : 1
Format : AVC
Format/Info : Advanced Video Codec
Format profile : High@L4.1
Format settings, CABAC : Yes
Format settings, RefFrames : 11 frames
Codec ID : V_MPEG4/ISO/AVC
Duration : 1 h 46 min
Bit rate : 2 400 kb/s
Width : 1 072 pixels
Height : 648 pixels
Display aspect ratio : 5:3
Frame rate mode : Constant
Frame rate : 23.976 (24000/1001) FPS
Original frame rate : 23.976 (23976/1000) FPS
Color space : YUV
Chroma subsampling : 4:2:0
Bit depth : 8 bits
Scan type : Progressive
Bits/(Pixel*Frame) : 0.144
Stream size : 1.78 GiB (86%)
Writing library : x264 core 146 r2538 121396c
Encoding settings : cabac=1 / ref=11 / deblock=1:0:0 / analyse=0x3:0x133 / me=umh / subme=10 / psy=1 / psy_rd=1.00:0.00 / mixed_ref=1 / me_range=24 / chroma_me=1 / trellis=2 / 8x8dct=1 / cqm=0 / deadzone=21,11 / fast_pskip=1 / chroma_qp_offset=-2 / threads=48 / lookahead_threads=5 / sliced_threads=0 / nr=0 / decimate=1 / interlaced=0 / bluray_compat=0 / constrained_intra=0 / bframes=8 / b_pyramid=2 / b_adapt=2 / b_bias=0 / direct=3 / weightb=1 / open_gop=0 / weightp=2 / keyint=250 / keyint_min=23 / scenecut=40 / intra_refresh=0 / rc_lookahead=60 / rc=2pass / mbtree=1 / bitrate=2400 / ratetol=1.0 / qcomp=0.60 / qpmin=0 / qpmax=69 / qpstep=4 / cplxblur=20.0 / qblur=0.5 / ip_ratio=1.40 / aq=1:1.00
Language : English
Default : Yes
Forced : No

Audio #1
ID : 2
Format : AC-3
Format/Info : Audio Coding 3
Format settings, Endianness : Big
Codec ID : A_AC3
Duration : 1 h 46 min
Bit rate mode : Constant
Bit rate : 192 kb/s
Channel(s) : 2 channels
Channel positions : Front: L R
Sampling rate : 48.0 kHz
Frame rate : 31.250 FPS (1536 SPF)
Bit depth : 16 bits
Compression mode : Lossy
Delay relative to video : 100 ms
Stream size : 146 MiB (7%)
Language : Russian
Service kind : Complete Main
Default : Yes
Forced : No

Audio #2
ID : 3
Format : AC-3
Format/Info : Audio Coding 3
Format settings, Endianness : Big
Codec ID : A_AC3
Duration : 1 h 46 min
Bit rate mode : Constant
Bit rate : 192 kb/s
Channel(s) : 2 channels
Channel positions : Front: L R
Sampling rate : 48.0 kHz
Frame rate : 31.250 FPS (1536 SPF)
Bit depth : 16 bits
Compression mode : Lossy
Delay relative to video : 100 ms
Stream size : 146 MiB (7%)
Language : English
Service kind : Complete Main
Default : No
Forced : No








МОИ РАЗДАЧИ НА ФЕНИКСе: ЗДЕСЬ




--------------------
"Спартак" - ЧЕМПИОН!!!

Скрыть подпись


wider2
№2 Отправлено: 21.09.2019 - 15:56


Живёт здесь

Группа: Потребители
Регистрация: 17.10.2006
Сообщений: 1227
Обитает:
Последний раз был:
cегодня в 07:02




Наш человек Юл Бриннер
всегда конретен и четок в обязательствах

Мужик сказал - мужик сделал - это про него

спасибо за воспоминания о 70х

P.S. с архивами все в порядке


Это сообщение отредактировал wider2 - 21.09.2019 - 16:57
Top
SanSan48
№3 Отправлено: 21.09.2019 - 19:00


"Спартак" - ЧЕМПИОН!!!

Группа: Пользователи
Регистрация: 28.12.2009
Сообщений: 2087
Обитает:
Последний раз был:
вчера в 18:38




Цитата
( wider2 @ 21.09.2019 - 15:56)
Наш человек Юл Бриннер
всегда конретен и четок в обязательствах

Мужик сказал - мужик сделал - это про него

спасибо за воспоминания о 70х

P.S. с архивами все в порядке

wider2, Благодарю за сообщение!

Приятного всем просмотра!


--------------------
"Спартак" - ЧЕМПИОН!!!

Скрыть подпись
Top
1 человек просматривает эту тему (1 гость)
« Предыдущая тема | Зарубежные фильмы | Следующая тема »


 



[Script Execution time: 0,0532]   [23 queries used]   [GZIP enabled]