Заходят многие - остаются лучшие!
Здравствуйте Гость ( Вход | Регистрация ) Выслать повторно письмо для активации
Вход
Ваше имя Пароль Забыли пароль?
Запомнить Вас?
Войти скрытым?



 Правила раздела Новые сообщения раздела  


 

 Ничего не говори мне / Не говори мне ничего / Sag mir nichts (2016), Драма,мелодрама;Реж-А.Кляйнерт;Роли-У.Ларди,Р.Визнеккер
SanSan48
  №1 Отправлено: 2.04.2018 - 10:15


"Спартак" - ЧЕМПИОН!!!

Группа: Пользователи
Регистрация: 28.12.2009
Сообщений: 1892
Обитает:
Последний раз был:
вчера в 20:10




Ничего не говори мне / Не говори мне ничего / Sag mir nichts (2016)



Жанр: Драма, мелодрама
Выпущено: Германия, Eikon-Südwest
Год выпуска: 2016
Премьера (мир): 15 июня 2016 (Германия)
Сценаристы: Норберт Баумгартен / Norbert Baumgarten
Оператор: Йоханнес Луис / Johannes Louis
Композитор: Дэниель Дикмайс / Daniel Dickmeis
Художники: Эммануэль Шлайермахер / Emanuel Schleiermacher, Бригитта Шлёгель / Brigitte Schlögel, Андреа Шайн / Andrea Schein
Монтажёр: Гизела Цик / Gisela Zick

Режиссёр: Андреас Кляйнерт / Andreas Kleinert

В ролях:
Урсина Ларди / Ursina Lardi ... Lena
Рональд Церфельд / Ronald Zehrfeld ... Martin
Рёланд Визнеккер / Roeland Wiesnekker ... Bodo
Сара Хостеттлер / Sarah Hostettler ... Solveig
Леа ван Акен / Lea van Acken ... Susanna
Лилли Мари Чёртнер / Lilly Marie Tschörtner ... Julia
Андреас Леупольд / Andreas Leupold ... Ernst
Гудрун Габриэль / Gudrun Gabriel ... Gabriele
Карин Нойхаузер / Karin Neuhäuser ... Doris Mannkopf
Аттила Борлан / Attila Borlan ... Griebel
Люсия Лехнерт / Luca Lehnert ... Patricia
Майя Лерер / Maja Lehrer ... Miriam
Надин Папе / Nadine Pape ... Bonny
Франк В. Рима / Frank W. Rima ... Passant

Описание: Случайно встретившись, замужняя женщина и женатый мужчина страстно полюбили друг друга. Это всепоглощающее чувство полностью заполонило их и они ничего не могут поделать с собой. Бросаясь в объятия друг друга, они пытаются изменить свою жизнь. Но превратить мечты о том времени, когда они будут вместе, оказалось очень сложно…

Дополнительная информация: Релиз:

Исходник найден в сети.

Автор рипа: pmv

Большое спасибо за:
- аудиодорожку с двухголосой озвучкой - Сибиряк777
- перевод - Константин Ломов
- озвучку - "Студия актуального кино"
- синхронизацию звука – pmv

IMDb = 6,5/10 (98) - http://www.imdb.com/title/tt5298526/
Кинопоиск = - (31) - https://www.kinopoisk.ru/film/ne-govori-mne...go-2016-962180/

ВНИМАНИЕ!!! РИП ФОРМАТА mkv (кодек H.264) ВОСПРОИЗВОДИТСЯ НЕ НА ВСЕХ БЫТОВЫХ ВИДЕОПЛЕЕРАХ!!!

Параметры файла:
Название: Sag mir nichts (2016, rus_MVO+ger).mkv
Качество видео: WEB-DLrip-AVC
Формат видео: MKV
Размер: 1,46 ГБ (1 571 984 544 байт)
Продолжительность: 01:29:44
Перевод: Константин Ломов
Озвучивание: Любительский (двухголосый закадровый) - "Студия актуального кино"
Оригинальная аудиодорожка: немецкий
Видео: AVC (H264), 1152x648 (16:9), 25 fps, 1950 kbps, 0.104 Bits/Pixel
Аудио #1: AC3, 48 kHz, stereo (2 ch), 192 kbps – русский
Аудио #2: AC3, 48 кHz, stereo (2 ch), 192 kbps - немецкий



General
Unique ID : 108728589318032093580155726031866093269 (0x51CC5D5649045E66212D9C6AEA58DED5)
Complete name : D:\torrents\Sag mir nichts (2016, rus_MVO+ger).mkv
Format : Matroska
Format version : Version 4 / Version 2
File size : 1.46 GiB
Duration : 1 h 29 min
Overall bit rate : 2 334 kb/s
Encoded date : UTC 2018-03-27 14:08:08
Writing application : mkvmerge v21.0.0 ('Tardigrades Will Inherit The Earth') 64-bit
Writing library : libebml v1.3.5 + libmatroska v1.4.8

Video
ID : 1
Format : AVC
Format/Info : Advanced Video Codec
Format profile : High@L4.1
Format settings, CABAC : Yes
Format settings, ReFrames : 11 frames
Codec ID : V_MPEG4/ISO/AVC
Duration : 1 h 29 min
Bit rate : 1 950 kb/s
Width : 1 152 pixels
Height : 648 pixels
Display aspect ratio : 16:9
Frame rate mode : Constant
Frame rate : 25.000 FPS
Color space : YUV
Chroma subsampling : 4:2:0
Bit depth : 8 bits
Scan type : Progressive
Bits/(Pixel*Frame) : 0.104
Stream size : 1.22 GiB (83%)
Writing library : x264 core 146 r2538 121396c
Encoding settings : cabac=1 / ref=11 / deblock=1:0:0 / analyse=0x3:0x133 / me=umh / subme=10 / psy=1 / psy_rd=1.00:0.00 / mixed_ref=1 / me_range=24 / chroma_me=1 / trellis=2 / 8x8dct=1 / cqm=0 / deadzone=21,11 / fast_pskip=1 / chroma_qp_offset=-2 / threads=66 / lookahead_threads=5 / sliced_threads=0 / nr=0 / decimate=1 / interlaced=0 / bluray_compat=0 / constrained_intra=0 / bframes=8 / b_pyramid=2 / b_adapt=2 / b_bias=0 / direct=3 / weightb=1 / open_gop=0 / weightp=2 / keyint=250 / keyint_min=25 / scenecut=40 / intra_refresh=0 / rc_lookahead=60 / rc=2pass / mbtree=1 / bitrate=1950 / ratetol=1.0 / qcomp=0.60 / qpmin=0 / qpmax=69 / qpstep=4 / cplxblur=20.0 / qblur=0.5 / ip_ratio=1.40 / aq=1:1.00
Language : German
Default : Yes
Forced : No

Audio #1
ID : 2
Format : AC-3
Format/Info : Audio Coding 3
Mode extension : CM (complete main)
Format settings, Endianness : Big
Codec ID : A_AC3
Duration : 1 h 29 min
Bit rate mode : Constant
Bit rate : 192 kb/s
Channel(s) : 2 channels
Channel positions : Front: L R
Sampling rate : 48.0 kHz
Frame rate : 31.250 FPS (1536 spf)
Bit depth : 16 bits
Compression mode : Lossy
Stream size : 123 MiB (8%)
Language : Russian
Default : Yes
Forced : No

Audio #2
ID : 3
Format : AC-3
Format/Info : Audio Coding 3
Mode extension : CM (complete main)
Format settings, Endianness : Big
Codec ID : A_AC3
Duration : 1 h 29 min
Bit rate mode : Constant
Bit rate : 192 kb/s
Channel(s) : 2 channels
Channel positions : Front: L R
Sampling rate : 48.0 kHz
Frame rate : 31.250 FPS (1536 spf)
Bit depth : 16 bits
Compression mode : Lossy
Stream size : 123 MiB (8%)
Language : German
Default : No
Forced : N









Сибиряк777, HDTVRip, MKV, 1280x720, 1.71 GB < > CaCa48, WEB-DLRip, MKV, 1152x648, 1.46 GB










МОИ РАЗДАЧИ НА ФЕНИКСе: ЗДЕСЬ




Это сообщение отредактировал SanSan48 - 2.04.2018 - 12:00


--------------------
"Спартак" - ЧЕМПИОН!!!

Скрыть подпись


EvansT
№2 Отправлено: 2.04.2018 - 10:18


Старожил

Группа: Форумчане
Регистрация: 2.07.2008
Сообщений: 845
Обитает:
Последний раз был:
вчера в 16:24




Цитата
Выпущено: Германия (ГДР), Eikon-Südwest

Странно.....такой страны нет давно....
Top
SanSan48
№3 Отправлено: 2.04.2018 - 12:01


"Спартак" - ЧЕМПИОН!!!

Группа: Пользователи
Регистрация: 28.12.2009
Сообщений: 1892
Обитает:
Последний раз был:
вчера в 20:10




Цитата
( EvansT @ 2.04.2018 - 10:18)
Цитата
Выпущено: Германия (ГДР), Eikon-Südwest

Странно.....такой страны нет давно....

Жалко, что нет ...


--------------------
"Спартак" - ЧЕМПИОН!!!

Скрыть подпись
Top
vjub58
№4 Отправлено: 2.04.2018 - 12:21


Практикующий эсквайр

Группа: Аксакалы
Регистрация: 6.12.2005
Сообщений: 4745
Обитает:
Последний раз был:
cегодня в 00:23




Спасибо, все ОК. pozdrav_buket.gif
Top
SanSan48
№5 Отправлено: 2.04.2018 - 12:46


"Спартак" - ЧЕМПИОН!!!

Группа: Пользователи
Регистрация: 28.12.2009
Сообщений: 1892
Обитает:
Последний раз был:
вчера в 20:10




Цитата
( vjub58 @ 2.04.2018 - 12:21)
Спасибо, все ОК. pozdrav_buket.gif

vjub58, Благодарю за информацию!

Приятного всем просмотра!


--------------------
"Спартак" - ЧЕМПИОН!!!

Скрыть подпись
Top
1 человек просматривает эту тему (1 гость)
« Предыдущая тема | Зарубежные фильмы | Следующая тема »


 



[Script Execution time: 0,0289]   [24 queries used]   [GZIP enabled]