Заходят многие - остаются лучшие!
Здравствуйте Гость ( Вход | Регистрация ) Выслать повторно письмо для активации
Вход
Ваше имя Пароль Забыли пароль?
Запомнить Вас?
Войти скрытым?



Новые сообщения раздела  

 

 Библейский сюжет. Антонио Вивальди. Иудифь (2009), Авторская программа Дмитрия Менделеева
Alevtina
  №1 Отправлено: 14.05.2018 - 18:39


Время камни собирать...

Группа: Аксакалы
Регистрация: 12.02.2009
Сообщений: 5682
Обитает:
Последний раз был:
вчера в 20:47




Библейский сюжет. Антонио Вивальди. "Иудифь"



В рамках проекта -

Год выпуска: 2009

Страна: Россия

Режиссер: Ольга Жукова

Студия: ООО Студия "Неофит"

Автор и ведущий: Дмитрий Менделеев


Обращение великих художников к Библии никогда не заканчивалось только иллюстрацией того или иного сюжета Вечной Книги. Оно всегда предполагало личное осмысление. Художник выбирал библейскую историю, чтобы рассказать о себе, о своем времени, чтобы глубже постичь смысл происходящего.
Язык образов Святого Писания был универсален и понятен для всех. Но теперь для нас этот язык наполовину забыт. Мы уже не можем так ясно, с листа, читать всё, что говорили в своих произведениях художники, поэты, композиторы и писатели прошлого. Мы более опираемся на чувственное восприятие, которое все же является только частью замысла, его внешней стороной. В программе "Библейский сюжет" делается попытка соединить "прекрасного разрозненные части", по-другому взглянуть на всемирно известные произведения искусства, рассказать о судьбе их создателей.


Описание:

В 1716 году, во время очередной Турецко-венецианской войны, корабли Османской империи осадили крепость острова Корфу – морские ворота Республики. Героическая осада продолжалась больше месяца. В эти дни Рыжий священник дон Антонио и создал свою ораторию "Триумф Иудифи".



Media-info:


Format : AVI
Format/Info : Audio Video Interleave
File size : 351 MiB
Duration : 25mn 57s
Overall bit rate : 1 892 Kbps

Video
ID : 0
Format : MPEG-4 Visual
Format profile : Advanced Simple@L5
Format settings, BVOP : Yes
Format settings, QPel : No
Format settings, GMC : No warppoints
Format settings, Matrix : Default (H.263)
Codec ID : XVID
Codec ID/Hint : XviD
Duration : 25mn 57s
Bit rate : 1 751 Kbps
Width : 640 pixels
Height : 480 pixels
Display aspect ratio : 4:3
Frame rate : 25.000 fps
Color space : YUV
Chroma subsampling : 4:2:0
Bit depth : 8 bits
Scan type : Progressive
Bits/(Pixel*Frame) : 0.228
Stream size : 325 MiB (93%)
Writing library : XviD 64

Audio
ID : 1
Format : MPEG Audio
Format version : Version 1
Format profile : Layer 3
Codec ID : 55
Codec ID/Hint : MP3
Duration : 25mn 56s
Bit rate mode : Constant
Bit rate : 128 Kbps
Channel(s) : 2 channels
Sampling rate : 44.1 KHz
Stream size : 23.8 MiB (7%)
Alignment : Split accross interleaves
Interleave, duration : 26 ms (0.65 video frame)


Cкриншоты:







Записались на автоматическое включение в очередь:
baziss, Snara, valbar, vyur, RussianGuy, Marrina, медикус, mosk7, Nadejdaenergia, ILIA, Masjanja, ajlinn, oldfanat, bondsun, mikhailk, medandrey, oster47, Tanjusha, andrusenko, rittaa, medush, rucula

Если вы хотите, чтобы вас автоматически ставили в очередь на следующие выпуски данного цикла, - сообщите об этом в теме последней раздачи.




Это сообщение отредактировал Alevtina - 14.05.2018 - 18:44


--------------------

Прохожие, купите Доброту!
Лишь за улыбку! Разве ж это много!
Исполните заветную мечту…
И хоть одну из Заповедей Бога!
Снимите маски «гордых» и «крутых»
Купите, хоть немножечко, Терпенья.
И ощутите сердцем, хоть на миг,
Всю прелесть и восторг благодаренья!
Сегодня, АКЦИЯ на Совесть и Любовь!
Притормозите «хаммер» свой, иль «буммер»!
Купите! И волнуйте свою кровь!
От этого ещё никто не умер!


Скрыть подпись


baziss
№2 Отправлено: 15.05.2018 - 05:30


Аксакал обыкновенный

Группа: Аксакалы
Регистрация: 4.12.2005
Сообщений: 2535
Обитает:
Последний раз был:
вчера в 18:34




Архив в порядке. Спасибо огромное! chveti.gif


--------------------

Скрыть подпись
Top
Alevtina
№3 Отправлено: 15.05.2018 - 17:05


Время камни собирать...

Группа: Аксакалы
Регистрация: 12.02.2009
Сообщений: 5682
Обитает:
Последний раз был:
вчера в 20:47




baziss,
Цитата
Архив в порядке.
- благодарю за весть!!!


--------------------

Прохожие, купите Доброту!
Лишь за улыбку! Разве ж это много!
Исполните заветную мечту…
И хоть одну из Заповедей Бога!
Снимите маски «гордых» и «крутых»
Купите, хоть немножечко, Терпенья.
И ощутите сердцем, хоть на миг,
Всю прелесть и восторг благодаренья!
Сегодня, АКЦИЯ на Совесть и Любовь!
Притормозите «хаммер» свой, иль «буммер»!
Купите! И волнуйте свою кровь!
От этого ещё никто не умер!


Скрыть подпись
Top
ER1WP
№4 Отправлено: 15.05.2018 - 17:07


Прохожий

Группа: Потребители
Регистрация: 13.01.2007
Сообщений: 19
Обитает:
Последний раз был:
вчера в 19:30





то тюлень позвонит, то олень...
Top
1 человек просматривает эту тему (1 гость)
« Предыдущая тема | Мир и люди искусства | Следующая тема »


 



[Script Execution time: 0,0420]   [23 queries used]   [GZIP enabled]