Здравствуйте Гость ( Вход | Регистрация ) Выслать повторно письмо для активации
Вход
Ваше имя Пароль Забыли пароль?
Запомнить Вас?
Войти скрытым?



Новые сообщения раздела  

 

 Принц и Вечерняя Звезда / Princ a Večernice (1979), Чешская сказка
bornik
  №1 Отправлено: 10.01.2018 - 18:50


Воспоминания - это богатства старости.

Группа: Модераторы
Регистрация: 18.08.2008
Сообщений: 988
Обитает:
Последний раз был:
cегодня в 16:48




Принц и Вечерняя Звезда / Princ a Večernice (1979)



Предыдущая раздача 16.06.2008 г.

«Принц и Вечерняя Звезда» - Великолепная сказочная история одного из талантливейших режиссёров-сказочников чешского кино, Вацлава Ворличека, созданная им в 1979 году.
Волшебство сказки захватывает с первых кадров настоящими эмоциями и профессионализмом режиссера и съемочной группы.

Название: Принц и Вечерняя Звезда
Оригинальное название: Princ a Večernice
Год выпуска: 1979
Жанр: Сказка, детский, комедия, приключения, семейный
Выпущено: Чехословакия, , Filmové Studio Barrandov
Продолжительность: 01:19:13
Премьера (мир): 01 октября 1979 года
Перевод: Профессиональный (многоголосый закадровый)
Cубтитры: Английские

Режиссёр: Вацлав Ворличек / Václav Vorlíček

В ролях:
Либуше Шафранкова / Libuše Šafránková … Вечерняя Звезда
Владимир Меншик / Vladimír Menšík … Король
Радослав Брзобогаты / Radoslav Brzobohatý … Мракомор
Юрай Дюрдияк / Juraj Ďurdiak … Принц
Франтишек Филиповски / František Filipovský … шут Какафирек
Юлие Юриштова / Julie Jurištová … Хеленка
Злата Адамовска / Zlata Adamovská … Еленка
Алексей Окунев / Alexej Okuněv … Лунный
Олдрих Таборский / Oldrich Táborský … Ветренный
Петр Свобода / Petr Svoboda … Солнечный
Ивана Андрлова / Ivana Andrlová … Ленка
Честмир Ржанда мл. / Čestmír Řanda ml. … трактирщик
Рудольф Елинек / Rudolf Jelínek … рыцарь Честмир
Виктор Маурер / Viktor Maurer … плут
Карел Аугуста / Karel Augusta
Вацлав Логниский / Václav Lohniský
Владимир Кршка / Vladimír Krška … купец
Ладислав Троян / Ladislav Trojan
Иржи Лир / Jirí Lír … нищий
Милош Ваврушка / Miloš Vavruška

Сценарист: Иржи Брдечка / Jiří Brdečka
Оператор: Йозеф Иллик / Josef Illík
Композитор: Сватоплук Гавелка / Svatopluk Havelka

Описание: У принца Велена было три сестры - Хеленка, Еленка и Ленка. Они стали жёнами трёх братьев, трёх могущественных королей - Луны, Солнца и Ветра. В их сестру по имени Вечерняя Звезда безнадежно влюблен сам Велен. Но чтобы добиться руки прекрасной принцессы, Велену предстоит пройти через сложные испытания, приготовленные её братьями.
Не помогут принцу ни волшебство, ни сверхъестественные силы. Всё Велену придётся делать самому. Выполнить все задания и отыскать Вечернюю Звезду очень нелегко - злой колдун Мракомар хочет помешать планам Велена. И лишь храбрость, ловкость и доброе сердце помогут принцу...


• Банеры с анонсом иногда в раздаче присутствуют.










General
Complete name : C:\Cinema\Принц и Вечерняя Звезда (1979).avi
Format : AVI
Format/Info : Audio Video Interleave
File size : 1.21 GiB
Duration : 1h 19mn
Overall bit rate : 2 196 Kbps
Writing application : VirtualDubMod 1.5.10.2 (build 2540/release)
Writing library : VirtualDubMod build 2540/release

Video
ID : 0
Format : MPEG-4 Visual
Format profile : Advanced Simple@L5
Format settings, BVOP : 2
Format settings, QPel : No
Format settings, GMC : No warppoints
Format settings, Matrix : Default (H.263)
Muxing mode : Packed bitstream
Codec ID : XVID
Codec ID/Hint : XviD
Duration : 1h 19mn
Bit rate : 1 994 Kbps
Width : 720 pixels
Height : 528 pixels
Display aspect ratio : 4:3
Frame rate : 25.000 fps
Color space : YUV
Chroma subsampling : 4:2:0
Bit depth : 8 bits
Scan type : Progressive
Compression mode : Lossy
Bits/(Pixel*Frame) : 0.210
Stream size : 1.10 GiB (91%)
Writing library : XviD 65

Audio
ID : 1
Format : AC-3
Format/Info : Audio Coding 3
Mode extension : CM (complete main)
Format settings, Endianness : Big
Codec ID : 2000
Duration : 1h 19mn
Bit rate mode : Constant
Bit rate : 192 Kbps
Channel(s) : 2 channels
Channel positions : Front: L R
Sampling rate : 48.0 KHz
Frame rate : 31.250 fps (1536 spf)
Compression mode : Lossy
Stream size : 109 MiB (9%)
Alignment : Split accross interleaves
Interleave, duration : 40 ms (1.00 video frame)
Interleave, preload duration : 500 ms


Исходником послужил релиз HDTV, найденный на просторах инета.



Архивы созданы RAR-архиватором с добавлением 3% на восстановление и снабжены sfv-проверочником.
Просьба к первому скачавшему отписаться о сохранности архивов на источнике раздачи.

Раздача рассчитана на месяц.

ПРИЯТНОГО ВСЕМ ПРОСМОТРА !!!
Перезаливает для архива: медикус




--------------------
Безоблачная старость – это миф,
Поскольку наша память – ширь морская,
И к ночи начинается прилив,
Со дна обломки прошлого таская.
Игорь Губерман

Скрыть подпись


Делон
№2 Отправлено: 10.01.2018 - 19:34


Прохожий

Группа: Потребители
Регистрация: 18.08.2014
Сообщений: 45
Обитает:
Последний раз был:
cегодня в 17:54




Архивы в порядке. Спасибо.
Top
bornik
№3 Отправлено: 10.01.2018 - 19:38


Воспоминания - это богатства старости.

Группа: Модераторы
Регистрация: 18.08.2008
Сообщений: 988
Обитает:
Последний раз был:
cегодня в 16:48




Цитата
( Делон @ 10.01.2018 - 19:34)
Архивы в порядке. Спасибо.

И Вам, Делон, спасибо за добрую весть. happy_fly.gif


--------------------
Безоблачная старость – это миф,
Поскольку наша память – ширь морская,
И к ночи начинается прилив,
Со дна обломки прошлого таская.
Игорь Губерман

Скрыть подпись
Top
1 человек просматривает эту тему (1 гость)
« Предыдущая тема | Детский киносеанс | Следующая тема »


 



[Script Execution time: 0,0269]   [24 queries used]   [GZIP enabled]