Заходят многие - остаются лучшие!
Здравствуйте Гость ( Вход | Регистрация ) Выслать повторно письмо для активации
Вход
Ваше имя Пароль Забыли пароль?
Запомнить Вас?
Войти скрытым?



 Правила раздела Новые сообщения раздела  


 

 Шерлок Холмс: Знак четырех / The Sign of Four: Sherlock Holmes' Greatest Case (1932), Один из первых звуковых фильмов о Шерлоке Холмсе в хорошем качестве
SanSan48
  №1 Отправлено: 1.10.2016 - 17:34


"Спартак" - ЧЕМПИОН!!!

Группа: Пользователи
Регистрация: 28.12.2009
Сообщений: 1809
Обитает:
Последний раз был:
cегодня в 20:05




Шерлок Холмс: Знак четырех / The Sign of Four: Sherlock Holmes' Greatest Case (1932)



Предыдущие раздачи:
30.06.2008 (DVDrip)
01.11.2009 (DVDrip)

Жанр: Детектив
Выпущено: Великобритания, Associated Talking Pictures (ATP)
Год выпуска: 1932
Премьера (мир): Май 1932 (Великобритания, Лондон), 14 августа 1932 (США), 26 сентября 1932 (UK)
Сценаристы: У.П.Липскомб / W.P.Lipscomb, Артур Конан Дойл / Arthur Conan Doyle
Операторы: Роберт Де Грасс / Robert De Grasse, Роберт Мартин / Robert Martin
Композитор: Эрнест Ирвинг / Ernest Irving
Художники: Клиффорд Пембер / Clifford Pember
Монтажёр: Отто Людвиг / Otto Ludwig

Режиссер: Грэм Каттс / Graham Cutts

В ролях:
Артур Уонтнер / Arthur Wontner ... Sherlock Holmes
Айла Беван / Isla Bevan ... Mary Morstan
Иэн Хантер / Ian Hunter ... Dr. John H. Watson
Грэм Суттен / Graham Soutten ... Jonathan Small
Майлз Маллесон / Miles Malleson ... Thaddeus Sholto
Херберт Ломас / Herbert Lomas ... Maj. John Sholto
Гилберт Дэвис / Gilbert Davis ... Det. Insp. Atherly Jones
Маргарет Ярд / Margaret Yarde ... Mrs. Smith
Рой Эмертон / Roy Emerton ... The Tattooed Man
Чарльз Фаррелл / Charles Farrell ... Funfair Patron, в титрах не указан
Клер Грит / Clare Greet ... Mrs. Hudson, в титрах не указана
Мур Марриотт / Moore Marriott ... Mordecai Smith, в титрах не указан
Эдгар Норфолк / Edgar Norfolk ... Capt. Morstan, в титрах не указан
Кинастон Ривз / Kynaston Reeves ... Bartholomew Sholto, в титрах не указан
Эрнест Сефтон / Ernest Sefton ... Barrett, в титрах не указан
Туго / Togo ... Tonga, в титрах не указан

Описание: По мотивам произведения Артура Конан Дойля (Arthur Conan Doyle).
Шерлок Холмс и доктор Ватсон намерены защитить Мэри Морстан, девушку, до смерти напуганную сбежавшим убийцей, который разыскивает свое украденное наследство и жаждет отомстить тому, кто его украл.
Он уже подбирается к Мэри в то время, как Холмс и Ватсон пытаются найти разгадку на странном карнавале-ярмарке, на котором присутствуют лишь карлики и мужчины, покрытые татуировками. Когда же Мэри похищают, ситуация превращается в отчаянную борьбу за время…

Дополнительная информация: Релиз:

Автор рипа: pmv

Исходник найден в сети.

Большое Спасибо за:
- звуковую дорожку с многоголосой озвучкой - AlekceyR76
- синхронизацию звука - pmv

* Один из первых звуковых фильмов про Шерлока Холмса.

IMDb = 5,9/10 (355) - http://www.imdb.com/title/tt0023469/
Кинопоиск = - (29) - https://www.kinopoisk.ru/film/155940/

ВНИМАНИЕ!!! РИП ФОРМАТА mkv (кодек H.264) ВОСПРОИЗВОДИТСЯ НЕ НА ВСЕХ БЫТОВЫХ ВИДЕОПЛЕЕРАХ!!!

Параметры файла:
Имя файла: The Sign Of Four (1932, rus+eng).mkv
Качество видео: DVDRip-AVC
Формат видео: MKV
Размер: 1,08 ГБ (1 162 873 310 bytes)
Продолжительность: 01:17:18
Перевод: Профессиональный (многоголосый закадровый) – «Элегия»
Оригинальная аудиодорожка: английский
Видео: AVC (H264), 720x528 (4:3), 24 fps, 1620 Kbps, 0.178 Bits/Pixel
Аудио #1: AC3, 48 KHz, stereo (2 ch), 192 Kbps – русский
Аудио #2: AC3, 48 KHz, stereo (2 ch), 192 Kbps – английский



General
Unique ID : 201731585623373036550503111980043474400 (0x97C41713F1C34276B08B8F59811415E0)
Complete name : D:\torrent\The Sign Of Four (1932, rus+eng).mkv
Format : Matroska
Format version : Version 4 / Version 2
File size : 1.08 GiB
Duration : 1h 17mn
Overall bit rate : 2 006 Kbps
Encoded date : UTC 2016-09-29 00:40:01
Writing application : mkvmerge v9.4.2 ('So High') 64bit
Writing library : libebml v1.3.4 + libmatroska v1.4.5
DURATION : 01:17:17.952000000
NUMBER_OF_FRAMES : 144936
NUMBER_OF_BYTES : 111310848
_STATISTICS_WRITING_APP : mkvmerge v9.4.2 ('So High') 64bit
_STATISTICS_WRITING_DATE_UTC : 2016-09-29 00:40:01
_STATISTICS_TAGS : BPS DURATION NUMBER_OF_FRAMES NUMBER_OF_BYTES

Video
ID : 1
Format : AVC
Format/Info : Advanced Video Codec
Format profile : High@L4.1
Format settings, CABAC : Yes
Format settings, ReFrames : 16 frames
Codec ID : V_MPEG4/ISO/AVC
Duration : 1h 17mn
Bit rate : 1 620 Kbps
Width : 720 pixels
Height : 528 pixels
Display aspect ratio : 4:3
Frame rate mode : Constant
Frame rate : 24.000 fps
Color space : YUV
Chroma subsampling : 4:2:0
Bit depth : 8 bits
Scan type : Progressive
Bits/(Pixel*Frame) : 0.178
Stream size : 875 MiB (79%)
Writing library : x264 core 146 r2538 121396c
Encoding settings : cabac=1 / ref=16 / deblock=1:0:0 / analyse=0x3:0x133 / me=umh / subme=10 / psy=1 / psy_rd=1.00:0.00 / mixed_ref=1 / me_range=24 / chroma_me=1 / trellis=2 / 8x8dct=1 / cqm=0 / deadzone=21,11 / fast_pskip=1 / chroma_qp_offset=-2 / threads=42 / lookahead_threads=4 / sliced_threads=0 / nr=0 / decimate=1 / interlaced=0 / bluray_compat=0 / constrained_intra=0 / bframes=8 / b_pyramid=2 / b_adapt=2 / b_bias=0 / direct=3 / weightb=1 / open_gop=0 / weightp=2 / keyint=250 / keyint_min=23 / scenecut=40 / intra_refresh=0 / rc_lookahead=60 / rc=2pass / mbtree=1 / bitrate=1620 / ratetol=1.0 / qcomp=0.60 / qpmin=0 / qpmax=69 / qpstep=4 / cplxblur=20.0 / qblur=0.5 / ip_ratio=1.40 / aq=1:1.00
Language : English
Default : Yes
Forced : No

Audio #1
ID : 2
Format : AC-3
Format/Info : Audio Coding 3
Mode extension : CM (complete main)
Format settings, Endianness : Big
Codec ID : A_AC3
Duration : 1h 17mn
Bit rate mode : Constant
Bit rate : 192 Kbps
Channel(s) : 2 channels
Channel positions : Front: L R
Sampling rate : 48.0 KHz
Bit depth : 16 bits
Compression mode : Lossy
Stream size : 106 MiB (10%)
Language : Russian
Default : Yes
Forced : No

Audio #2
ID : 3
Format : AC-3
Format/Info : Audio Coding 3
Mode extension : CM (complete main)
Format settings, Endianness : Big
Codec ID : A_AC3
Duration : 1h 17mn
Bit rate mode : Constant
Bit rate : 192 Kbps
Channel(s) : 2 channels
Channel positions : Front: L R
Sampling rate : 48.0 KHz
Bit depth : 16 bits
Compression mode : Lossy
Stream size : 106 MiB (10%)
Language : English
Default : No
Forced : No








DVD5, 720x480, 1.85 GB < > DVDRip, mkv, 720x528, 1.08 GB
http://screenshotcomparison.com/comparison/186217


МОИ РАЗДАЧИ НА ФЕНИКСе: ЗДЕСЬ




Это сообщение отредактировал SanSan48 - 1.10.2016 - 18:13


--------------------
"Спартак" - ЧЕМПИОН!!!

Скрыть подпись


vjub58
№2 Отправлено: 1.10.2016 - 19:40


Практикующий эсквайр

Группа: Аксакалы
Регистрация: 6.12.2005
Сообщений: 4574
Обитает:
Последний раз был:
18.09.2017 - 09:47




Спасибо, все ОК. pozdrav_buket.gif
Top
SanSan48
№3 Отправлено: 1.10.2016 - 20:25


"Спартак" - ЧЕМПИОН!!!

Группа: Пользователи
Регистрация: 28.12.2009
Сообщений: 1809
Обитает:
Последний раз был:
cегодня в 20:05




Цитата
( vjub58 @ 1.10.2016 - 19:40)
Спасибо, все ОК. pozdrav_buket.gif

Благодарю за сообщение!


--------------------
"Спартак" - ЧЕМПИОН!!!

Скрыть подпись
Top
1 человек просматривает эту тему (1 гость)
« Предыдущая тема | Зарубежные фильмы | Следующая тема »


 



[Script Execution time: 0,0375]   [23 queries used]   [GZIP enabled]