Здравствуйте Гость ( Вход | Регистрация ) Выслать повторно письмо для активации
Вход
Ваше имя Пароль Забыли пароль?
Запомнить Вас?
Войти скрытым?



 Правила раздела Новые сообщения раздела  


 

 Тишины не будет (1962), Социальная драма;Реж.-Б.Кимягаров;Роли-М.Касымов,Е.Тетерин
SanSan48
  №1 Отправлено: 26.08.2017 - 17:16


"Спартак" - ЧЕМПИОН!!!

Группа: Пользователи
Регистрация: 28.12.2009
Сообщений: 1833
Обитает:
Последний раз был:
cегодня в 09:53




Тишины не будет (1962)



Жанр: Социальная драма
Выпущено: СССР, Таджикфильм
Год выпуска: 1962
Премьера (СССР): 14 октября 1963
Премьера (мир):
Сценаристы: Бенсион (Борис) Кимягаров, Евгений Помещиков
Оператор: Наум Ардашников
Композитор: Андрей Бабаев
Текст песен на стихи Боки Рахимзода
Художники: Евгений Куманьков, Э.Калантаров, Н.Рахимбаев
Монтажёр: Е.Маханькова

Режиссёр: Бенсион (Борис) Кимягаров

В ролях:
Мухаммеджан Касымов … Мухаммеджан Курбанов
Хамза Умаров … Карим Курбанов, агроном
Сайрам Исаева … Лютфия
М.Назаров … Зафар Курбанов
Дилором Джурбаева-Сосновская … Гульшан
Хабибулло Абдуразаков … Юсупов, парторг
К.Назиров … Пулат
Наталья Антонова … Елена Цветкова
Евгений Тетерин … Андрей Ильич Озеров, секретарь райкома
Шамси Джураев … бригадир колхоза
Юрий Подсолонко … Алексей Смирнов, энергетик
Абдульхайр Касымов … Набиджон, чайханщик
Туфа Фазылова
Бурхон Раджабов
С.Власенко

Описание:
О взаимоотношениях в семье председателя таджикского колхоза Мухаммеджана Курбанова: сыновья Зафар и Карим стоят на разных жизненных позициях…

Дополнительная информация: Релиз:

Автор рипа: pmv

Большое спасибо за:
- исходный DVD5 и разрешение на раздачу на Фениксе - Доброму человеку

* Представленный в раздаче фильм из собрания ГФФ, выпущен в подарочном исполнении и является раритетом.

* Фильм раздаётся исключительно в ознакомительных целях и коммерческому распространению не подлежит.
Поэтому ПРОСЬБА к скачавшим фильм НЕ РАЗДАВАТЬ данный рип на каких-либо сторонних ресурсах.


Кинопоиск = - (1) - https://www.kinopoisk.ru/film/tishiny-ne-budet-1962-596194/
Кинотеатр = http://www.kino-teatr.ru/kino/movie/sov/9830/annot/

ВНИМАНИЕ!!! РИП ФОРМАТА mkv (кодек H.264) ВОСПРОИЗВОДИТСЯ НЕ НА ВСЕХ БЫТОВЫХ ВИДЕОПЛЕЕРАХ!!!

Параметры файла:
Название: Тишины не будет (1962).mkv
Качество видео: DVDrip
Формат видео: MKV
Размер: 1,35 ГБ (1 456 374 714 байт)
Продолжительность: 01:22:12
Перевод: Профессиональный (дублированный) - советский дубляж
Видео: AVC (H264), 704@768x576 (4:3), 25 fps, 1700 kbps, 0.231 Bits/Pixel
Аудио: AC3, 48 KHz, stereo (2 ch), 192 kbps



General
Unique ID : 248023568801137285582882033411713165210 (0xBA979A100280BE6685C17D4F6FA8679A)
Complete name : D:\torrents\Тишины не будет (1962).mkv
Format : Matroska
Format version : Version 4 / Version 2
File size : 1.36 GiB
Duration : 1 h 22 min
Overall bit rate : 2 362 kb/s
Encoded date : UTC 2017-08-24 21:32:24
Writing application : mkvmerge v15.0.0 ('Duel with the Devil') 64-bit
Writing library : libebml v1.3.5 + libmatroska v1.4.5

Video
ID : 1
Format : AVC
Format/Info : Advanced Video Codec
Format profile : High@L4.1
Format settings, CABAC : Yes
Format settings, ReFrames : 16 frames
Codec ID : V_MPEG4/ISO/AVC
Duration : 1 h 22 min
Bit rate : 2 170 kb/s
Width : 704 pixels
Height : 576 pixels
Display aspect ratio : 4:3
Original display aspect ratio : 1.222
Frame rate mode : Constant
Frame rate : 25.000 FPS
Standard : PAL
Color space : YUV
Chroma subsampling : 4:2:0
Bit depth : 8 bits
Scan type : Progressive
Bits/(Pixel*Frame) : 0.214
Stream size : 1.25 GiB (92%)
Writing library : x264 core 146 r2538 121396c
Encoding settings : cabac=1 / ref=16 / deblock=1:0:0 / analyse=0x3:0x133 / me=umh / subme=10 / psy=1 / psy_rd=1.00:0.00 / mixed_ref=1 / me_range=24 / chroma_me=1 / trellis=2 / 8x8dct=1 / cqm=0 / deadzone=21,11 / fast_pskip=1 / chroma_qp_offset=-2 / threads=48 / lookahead_threads=4 / sliced_threads=0 / nr=0 / decimate=1 / interlaced=0 / bluray_compat=0 / constrained_intra=0 / bframes=8 / b_pyramid=2 / b_adapt=2 / b_bias=0 / direct=3 / weightb=1 / open_gop=0 / weightp=2 / keyint=250 / keyint_min=25 / scenecut=40 / intra_refresh=0 / rc_lookahead=60 / rc=2pass / mbtree=1 / bitrate=2170 / ratetol=1.0 / qcomp=0.60 / qpmin=0 / qpmax=69 / qpstep=4 / cplxblur=20.0 / qblur=0.5 / ip_ratio=1.40 / aq=1:1.00
Language : Russian
Default : Yes
Forced : No

Audio
ID : 2
Format : AC-3
Format/Info : Audio Coding 3
Mode extension : CM (complete main)
Format settings, Endianness : Big
Codec ID : A_AC3
Duration : 1 h 21 min
Bit rate mode : Constant
Bit rate : 192 kb/s
Channel(s) : 2 channels
Channel positions : Front: L R
Sampling rate : 48.0 kHz
Frame rate : 31.250 FPS (1536 spf)
Bit depth : 16 bits
Compression mode : Lossy
Stream size : 112 MiB (8%)
Language : Russian
Default : Yes
Forced : No








МОИ РАЗДАЧИ НА ФЕНИКСе: ЗДЕСЬ




Это сообщение отредактировал SanSan48 - 27.08.2017 - 17:09


--------------------
"Спартак" - ЧЕМПИОН!!!

Скрыть подпись


astr76
№2 Отправлено: 26.08.2017 - 19:03


Новичок

Группа: Потребители
Регистрация: 16.08.2008
Сообщений: 56
Обитает:
Последний раз был:
вчера в 23:49




Архивы распаковались, спасибо за раздачу.
Top
SanSan48
№3 Отправлено: 26.08.2017 - 19:08


"Спартак" - ЧЕМПИОН!!!

Группа: Пользователи
Регистрация: 28.12.2009
Сообщений: 1833
Обитает:
Последний раз был:
cегодня в 09:53




Цитата
( astr76 @ 26.08.2017 - 19:03)
Архивы распаковались, спасибо за раздачу.

astr76, Благодарю за сообщение!

Приятного всем просмотра!


--------------------
"Спартак" - ЧЕМПИОН!!!

Скрыть подпись
Top
pushistiy
№4 Отправлено: 27.08.2017 - 16:25


Старожил

Группа: Потребители
Регистрация: 8.12.2013
Сообщений: 613
Последний раз был:
позавчера в 18:38




Цитата
SanSan48 @ 26.08.2017 - 17:16
сыновья Зафар и Курбан стоят на разных жизненных позициях…

Всё-таки Зафар и КАРИМ...исправьте, пожалуйста sad.gif
Top
1mark2
№5 Отправлено: 28.08.2017 - 12:21


Гость

Группа: Новички
Регистрация: 14.06.2016
Сообщений: 2
Обитает:
Последний раз был:
15.10.2017 - 15:27




Спасибо большое за раздачу
Top
1 человек просматривает эту тему (1 гость)
« Предыдущая тема | Отечественное кино | Следующая тема »


 



[Script Execution time: 0,0230]   [24 queries used]   [GZIP enabled]