Здравствуйте Гость ( Вход | Регистрация ) Выслать повторно письмо для активации
Вход
Ваше имя Пароль Забыли пароль?
Запомнить Вас?
Войти скрытым?



 Правила раздела Новые сообщения раздела  


 

 Женщина издалека (1978), Военный,драма;Реж.-Т.Сабиров;Роли-И.Калиновская,Х.Гадоев,А.Фатюшин
SanSan48
  №1 Отправлено: 28.08.2017 - 12:50


"Спартак" - ЧЕМПИОН!!!

Группа: Пользователи
Регистрация: 28.12.2009
Сообщений: 1833
Обитает:
Последний раз был:
вчера в 19:38




Женщина издалека (1978)



Жанр: Военный, драма
Выпущено: СССР, Таджикфильм
Год выпуска: 1978
Премьера (СССР): июнь 1979 (Москва)
Сценарист: Николай Фигуровский
Оператор: Александр Шабатаев
Композитор: Толибхон Шахиди
Художники: Давид Ильябаев, П.Смехнова
Монтажёр: К.Алеева

Режиссер: Тахир Сабиров

В ролях:
Ирина Калиновская … Дарья
Хашим Гадоев … Саша Расулов
Ситора Алиева … Лейла, дочь Дарьи и Саши
Олег Вершковский
Соджида Гулямова
Юрий Дедович … главврач
Ирина Егорова
Александр Фатюшин … танкист, лейтенант
Владимир Плотников … солдат с махоркой
Камол Саидмурадов … Джавлон
Савринисо Сабзалиева … С.Сабзалиева
Нина Тер-Осипян
Зоя Толбузина … пасажирка поезда
Дильбар Умарова … Заханчирова
Е.Филатов
Юнус Юсупов … Нозим

Описание: Молодая украинка Дарья выходит замуж за солдата-таджика Расулова и уезжает в его аул. У них рождается дочь, а вскоре начинается Великая Отечественная война. Муж ранен на фронте и теряет зрение. Долгая борьба Дарьи за возвращение Расулова к жизни приносит плоды - он начинает видеть...

Дополнительная информация: Релиз:

Автор рипа: pmv

Большое спасибо за:
- исходный DVD5 и разрешение на раздачу на Фениксе - Доброму человеку

* Представленный в раздаче фильм из собрания ГФФ, выпущен в подарочном исполнении и является раритетом.

* Фильм раздаётся исключительно в ознакомительных целях и коммерческому распространению не подлежит.
Поэтому ПРОСЬБА к скачавшим фильм НЕ РАЗДАВАТЬ данный рип на каких-либо сторонних ресурсах.


Кинопоиск = - (4) - https://www.kinopoisk.ru/film/zhenshhina-iz...ka-1978-596030/
Кинотеатр = http://www.kino-teatr.ru/kino/movie/sov/10138/annot/

Параметры файла:
Название: Женщина издалека (1978).avi
Качество видео: DVDrip
Формат видео: AVI
Размер: 729.81 Mb ( 765 259 448 bytes )
Продолжительность: 01:12:36.959 (108924 frames)
Видео: 704x336 (2.10:1), 25 fps, XviD build 73 ~1203 kbps avg, 0.20 bit/pixel
Аудио: AC3, 48 KHz, stereo (2 ch), 192 kbps



General
Complete name : D:\torrents\Женщина издалека (1978).avi
Format : AVI
Format/Info : Audio Video Interleave
File size : 730 MiB
Duration : 1 h 12 min
Overall bit rate : 1 405 kb/s
Writing application : VirtualDubMod 1.5.10.3 | www.virtualdub-fr.org || (build 2550/release)
Writing library : VirtualDub build 35576/release

Video
ID : 0
Format : MPEG-4 Visual
Format profile : Advanced Simple@L5
Format settings, BVOP : 2
Format settings, QPel : No
Format settings, GMC : No warppoints
Format settings, Matrix : Default (H.263)
Codec ID : XVID
Codec ID/Hint : XviD
Duration : 1 h 12 min
Bit rate : 1 203 kb/s
Width : 704 pixels
Height : 336 pixels
Display aspect ratio : 2.095
Frame rate : 25.000 FPS
Color space : YUV
Chroma subsampling : 4:2:0
Bit depth : 8 bits
Scan type : Progressive
Compression mode : Lossy
Bits/(Pixel*Frame) : 0.203
Stream size : 625 MiB (86%)
Writing library : XviD 73

Audio
ID : 1
Format : AC-3
Format/Info : Audio Coding 3
Mode extension : CM (complete main)
Format settings, Endianness : Big
Codec ID : 2000
Duration : 1 h 12 min
Bit rate mode : Constant
Bit rate : 192 kb/s
Channel(s) : 2 channels
Channel positions : Front: L R
Sampling rate : 48.0 kHz
Frame rate : 31.250 FPS (1536 spf)
Bit depth : 16 bits
Compression mode : Lossy
Stream size : 99.7 MiB (14%)
Alignment : Aligned on interleaves
Interleave, duration : 40 ms (1.00 video frame)
Interleave, preload duration : 512 ms





МОИ РАЗДАЧИ НА ФЕНИКСе: ЗДЕСЬ




Это сообщение отредактировал SanSan48 - 28.08.2017 - 17:56


--------------------
"Спартак" - ЧЕМПИОН!!!

Скрыть подпись


OldLady
№2 Отправлено: 28.08.2017 - 19:28


секрет

Группа: Аксакалы
Регистрация: 26.03.2006
Сообщений: 2975
Последний раз был:
вчера в 23:22




Все в порядке, спасибо!
Top
SanSan48
№3 Отправлено: 29.08.2017 - 06:31


"Спартак" - ЧЕМПИОН!!!

Группа: Пользователи
Регистрация: 28.12.2009
Сообщений: 1833
Обитает:
Последний раз был:
вчера в 19:38




Цитата
( OldLady @ 28.08.2017 - 19:28)
Все в порядке, спасибо!

OldLady, Благодарю за сообщение!


--------------------
"Спартак" - ЧЕМПИОН!!!

Скрыть подпись
Top
1 человек просматривает эту тему (1 гость)
« Предыдущая тема | Отечественное кино | Следующая тема »


 



[Script Execution time: 0,0660]   [24 queries used]   [GZIP enabled]