Заходят многие - остаются лучшие!
Здравствуйте Гость ( Вход | Регистрация ) Выслать повторно письмо для активации
Вход
Ваше имя Пароль Забыли пароль?
Запомнить Вас?
Войти скрытым?



 Правила раздела Новые сообщения раздела  


 

 Секретная операция / Operation Secret (1952), Корнел Уайлд, Стив Кокран, Карл Молден / военный, драма
surzhoks
  №1 Отправлено: 13.04.2018 - 17:37


Живёт здесь

Группа: Аксакалы
Регистрация: 17.03.2008
Сообщений: 1053
Обитает:
Последний раз был:
позавчера в 17:58




Секретная операция / Operation Secret


Страна: США
Студия: Warner Bros. Pictures
Жанр: военный, драма
Год выпуска: 1952
Продолжительность: 01:48:01
Режиссер: Льюис Сейлер / Lewis Seiler
Композитор: Рой Уэбб / Roy Webb

В ролях:
Корнел Уайлд / Cornel Wilde ... Peter Forrester
Стив Кокран / Steve Cochran ... Marcel Brevoort
Филлис Такстер / Phyllis Thaxter ... Maria Corbet
Карл Молден / Karl Malden ... Maj. Latrec
Пол Пицерни / Paul Picerni ... Capt. Armand Dubois
Лестер Мэтьюз / Lester Matthews ... Robbins
Дэн О’Херлихи / Dan O'Herlihy ... Mike Duncan
Джей Новелло / Jay Novello ... Herr Bauer
Вилтон Графф / Wilton Graff ... French Official
Дэн Рисс / Dan Riss ... German Sergeant
Хэрлан Варде / Harlan Warde ... Maj. Dawson
Кеннет Паттерсон / Kenneth Patterson ... General
Уильям Ф. Лейкестер / William F. Leicester ... Capt. Hughes
Гэйл Келлогг / Gayle Kellogg ... Corporal

Описание: После Второй мировой войны суд Парижа расследует убийство Армана Дюбуа, участника одной из групп Сопротивления. В суд, среди прочих, вызываются французский агент Марсель Бревур, агент Мария Корбе, майор Латрек, чтобы дать показания о таинственном американском солдате удачи Питере Форрестере. Их показания рисуют Форрестера как безрассудного и дерзкого агента под прикрытием, действия которого повлияли на миссию, в которой участвовал Дюбуа...

Доп. информация:
Огромное спасибо всем причастным к релизу:
рип - Магда,
перевод и озвучивание фильма- Алексей Багичев,
работа со звуком и реавторинг DVD- AlekceyR76,
финансовая поддержка перевода и озвучивания фильма:
Магда, Lafajet, jasenka, yanaelisa, voostorg, bvedargh, surzhoks, Mc-Nabbs, killer snowman, sindzi, duum100, cementit, spartakeynoir, Patsy+

Архивы созданы RAR-архиватором с добавлением 3% на восстановление и снабжены sfv-проверочником.
Просьба к первому скачавшему отписаться о сохранности архивов на источнике раздачи.

Раздача рассчитана на 2 месяца. На просмотр линка и скачивание 5 дней!
В случае если вы встали в очередь, а затем отказываетесь от скачивания без объяснения причин, возможен отказ в последующих моих раздачах.



Полное имя :Operation Secret.1952.avi
Формат : AVI
Формат/Информация : Audio Video Interleave
Размер файла : 1,61 Гбайт
Продолжительность : 1 ч. 48 м.
Общий поток : 2127 Кбит/сек
Программа кодирования : VirtualDubMod 1.5.4.1 (build 2178/release)
Библиотека кодирования : VirtualDubMod build 2178/release

Видео
Идентификатор : 0
Формат : MPEG-4 Visual
Профиль формата : Advanced Simple@L5
Параметр BVOP формата : 2
Параметр QPel формата : Нет
Параметр GMC формата : Без точки перехода
Параметр матрицы формата : Default (H.263)
Идентификатор кодека : DX50
Идентификатор кодека/Подсказка : DivX 5
Продолжительность : 1 ч. 48 м.
Битрейт : 1729 Кбит/сек
Ширина : 624 пикселя
Высота : 480 пикселей
Соотношение сторон : 4:3
Частота кадров : 23,976 кадра/сек
Цветовое пространство : YUV
Субдискретизация насыщенности : 4:2:0
Битовая глубина : 8 бит
Тип развёртки : Прогрессивная
Метод сжатия : С потерями
Бит/(Пиксели*Кадры) : 0.241
Размер потока : 1,30 Гбайт (81%)
Библиотека кодирования : XviD 73

Аудио #1
Идентификатор : 1
Формат : AC-3
Формат/Информация : Audio Coding 3
Расширение режима : CM (complete main)
Параметр Endianness формата : Big
Идентификатор кодека : 2000
Продолжительность : 1 ч. 48 м.
Вид битрейта : Постоянный
Битрейт : 192 Кбит/сек
Каналы : 2 канала
Расположение каналов : Front: L R
Частота : 48,0 КГц
Битовая глубина : 16 бит
Метод сжатия : С потерями
Размер потока : 148 Мбайт (9%)
Выравнивание : Разделение по промежуткам
Продолжительность промежутка : 42 мс. (1,00 видеокадр)
Время предзагрузки промежутка : 500 мс.

Аудио #2
Идентификатор : 2
Формат : AC-3
Формат/Информация : Audio Coding 3
Расширение режима : CM (complete main)
Параметр Endianness формата : Big
Идентификатор кодека : 2000
Продолжительность : 1 ч. 48 м.
Вид битрейта : Постоянный
Битрейт : 192 Кбит/сек
Каналы : 2 канала
Расположение каналов : Front: L R
Частота : 48,0 КГц
Битовая глубина : 16 бит
Метод сжатия : С потерями
Размер потока : 148 Мбайт (9%)
Выравнивание : Разделение по промежуткам
Продолжительность промежутка : 42 мс. (1,00 видеокадр)
Время предзагрузки промежутка : 500 мс.




bondsun
№2 Отправлено: 13.04.2018 - 19:14


кучерявый

Группа: Потребители
Регистрация: 17.08.2009
Сообщений: 4305
Обитает:
Последний раз был:
cегодня в 18:09





Благодарствую, архивы в порядке.


--------------------
Пусть рушится мир весь вокруг, пополам,
Пусть часто фортуна не прёт.
Не кофе нас должен бодрить по утрам,
А тот, кто его подаёт.

happy.gif

Скрыть подпись
Top
Ivkivk
№3 Отправлено: 14.04.2018 - 09:44


Заварной чайник

Группа: Форумчане
Регистрация: 10.09.2008
Сообщений: 293
Обитает:
Последний раз был:
позавчера в 09:33




Большое спасибо за фильм всем, кто его готовил, и , конечно, раздающему. pozdrav_buket.gif

В фильме американцы бомбят ос тяжелыми потерями объект немецкого военпрома - подшипниковую фабрику.
Интересно, что 20% подшипников, установленных в самолетах Люфтваффе, были поставлены из США (через Швецию)
по утверждению военного историка с утраченной фамилией на ТВ канале "Звезда.
Может быть 20% достигнуты за счет этих бомбежек.
Top
1 человек просматривает эту тему (1 гость)
« Предыдущая тема | Зарубежные фильмы | Следующая тема »


 



[Script Execution time: 0,0292]   [23 queries used]   [GZIP enabled]