Заходят многие - остаются лучшие!
Здравствуйте Гость ( Вход | Регистрация ) Выслать повторно письмо для активации
Вход
Ваше имя Пароль Забыли пароль?
Запомнить Вас?
Войти скрытым?



 Правила раздела Новые сообщения раздела  


 

 Джентльмен Джим / Gentleman Jim (1942) / Полная версия - MVO /, Эррол Флинн, Алексис Смит, Джек Карсон / драма, спорт
surzhoks
  №1 Отправлено: 13.04.2018 - 17:59


Живёт здесь

Группа: Аксакалы
Регистрация: 17.03.2008
Сообщений: 1100
Обитает:
Последний раз был:
13.12.2018 - 17:49




Джентльмен Джим / Gentleman Jim


Страна: США
Студия: Warner Bros. Pictures
Жанр: драма
Год выпуска: 1942
Продолжительность: 01:44:26
Режиссер: Рауль Уолш / Raoul Walsh
Композитор: Хайнц Рёмхельд / Heinz Roemheld
В ролях:
Эррол Флинн / Errol Flynn ... James J. Corbett
Алексис Смит / Alexis Smith ... Victoria Ware
Джек Карсон / Jack Carson ... Walter Lowrie
Алан Хэйл / Alan Hale ... Pat Corbett
Джон Лодер / John Loder ... Carlton De Witt
Уильям Фроули / William Frawley ... Billy Delaney
Майнор Уотсон / Minor Watson ... Buck Ware
Уорд Бонд / Ward Bond ... John L. Sullivan
Мадлен Лебо / Madeleine Lebeau ... Anna Held
Риз Уильямс / Rhys Williams ... Harry Watson
Артур Шилдс / Arthur Shields ... Father Burke
Дороти Вон / Dorothy Vaughan ... Ma Corbett

Описание: 1)Эта картина рассказывает о начале спортивной карьеры первого чемпиона мира по боксу в перчатках американца Джеймса Корбетта по прозвищу Джентльмен Джим. Это он в двадцать первом раунде нокаутировал многократного чемпиона Джона Салливана, Корбетт внес много нового в методику тренировок боксеров: изобрел и применил «грушу», ввел прыжки со скакалкой, стал использовать для подготовки к бою другие виды спорта, в частности легкую атлетику...

2) На основе событий из жизни Джеймса Дж.Корбетта и его автобиографии "Рев толпы".
Сан-Франциско, 1887 год. Бокс пока еще не то благородное искусство, которым он станет впоследствии; это спорт без правил, популярный на подпольных турнирах на задворках города. Джим Корбетт, скромный банковский служащий, сын кучера-ирландца - завсегдатай таких турниров. При облаве он бессовестно врет и помогает судье Гири уйти от преследователей, чем заслуживает его благодарность. Судья, как и многие жители города, обожает бокс и хочет, чтобы этот спорт стал уделом джентльменов. В банке Корбетт предлагает свои услуги богатой наследнице Виктории Уэйр и относит ее отцу в "Олимпийский клуб" деньги, чтобы тот мог продолжить партию в покер. Корбетт, мечтающий сделать карьеру, заворожен богатым убранством клуба. Виктория помогает ему попасть в гимнастический зал. Он проводит короткий бой со знаменитым тренером Гарри Уотсоном и впечатляет всех своими боксерскими качествами. Ему немедленно вручают членскую карточку, и Виктория, хоть и поражена его нахальством, соглашается стать его "крестной матерью"...
"Кинотеатр"

Это полная версия фильма.
Такая же версия, но без субтитров с большим размером файла раздается здесь.
Доп. информация:
Огромное спасибо всем причастным к релизу:
рип - Магда,
перевод фильма - Aleksgreek,
озвучивание фильма (по русским субтитрам)- Aleksgreek, smip2010, Линда,
синхронизация звука, исходник - Aleksgreek.

Просьба - данную звуковую дорожку, или русский текст данного фильма, не использовать в коммерческих целях.

Архивы созданы RAR-архиватором с добавлением 3% на восстановление и снабжены sfv-проверочником.
Просьба к первому скачавшему отписаться о сохранности архивов на источнике раздачи.

Раздача рассчитана на 2 месяца. На просмотр линка и скачивание 5 дней!
В случае если вы встали в очередь, а затем отказываетесь от скачивания без объяснения причин, возможен отказ в последующих моих раздачах.



Полное имя :Gentleman Jim.1942.avi
Формат : AVI
Формат/Информация : Audio Video Interleave
Размер файла : 1,60 Гбайт
Продолжительность : 1 ч. 44 м.
Общий поток : 2193 Кбит/сек
Программа кодирования : VirtualDubMod 1.5.4.1 (build 2178/release)
Библиотека кодирования : VirtualDubMod build 2178/release

Видео
Идентификатор : 0
Формат : MPEG-4 Visual
Профиль формата : Advanced Simple@L5
Параметр BVOP формата : 2
Параметр QPel формата : Нет
Параметр GMC формата : Без точки перехода
Параметр матрицы формата : Default (H.263)
Идентификатор кодека : DX50
Идентификатор кодека/Подсказка : DivX 5
Продолжительность : 1 ч. 44 м.
Битрейт : 1795 Кбит/сек
Ширина : 704 пикселя
Высота : 528 пикселей
Соотношение сторон : 4:3
Частота кадров : 23,976 кадра/сек
Цветовое пространство : YUV
Субдискретизация насыщенности : 4:2:0
Битовая глубина : 8 бит
Тип развёртки : Прогрессивная
Метод сжатия : С потерями
Бит/(Пиксели*Кадры) : 0.201
Размер потока : 1,31 Гбайт (82%)
Библиотека кодирования : XviD 73

Аудио #1
Идентификатор : 1
Формат : AC-3
Формат/Информация : Audio Coding 3
Расширение режима : CM (complete main)
Параметр Endianness формата : Big
Идентификатор кодека : 2000
Продолжительность : 1 ч. 44 м.
Вид битрейта : Постоянный
Битрейт : 192 Кбит/сек
Каналы : 1 канал
Расположение каналов : Front: C
Частота : 48,0 КГц
Битовая глубина : 16 бит
Метод сжатия : С потерями
Размер потока : 143 Мбайт (9%)
Выравнивание : Разделение по промежуткам
Продолжительность промежутка : 42 мс. (1,00 видеокадр)
Время предзагрузки промежутка : 500 мс.

Аудио #2
Идентификатор : 2
Формат : AC-3
Формат/Информация : Audio Coding 3
Расширение режима : CM (complete main)
Параметр Endianness формата : Big
Идентификатор кодека : 2000
Продолжительность : 1 ч. 44 м.
Вид битрейта : Постоянный
Битрейт : 192 Кбит/сек
Каналы : 1 канал
Расположение каналов : Front: C
Частота : 48,0 КГц
Битовая глубина : 16 бит
Метод сжатия : С потерями
Размер потока : 143 Мбайт (9%)
Выравнивание : Разделение по промежуткам
Продолжительность промежутка : 42 мс. (1,00 видеокадр)
Время предзагрузки промежутка : 500 мс.




kyo
№2 Отправлено: 13.04.2018 - 20:22


Живёт здесь

Группа: Потребители
Регистрация: 21.07.2007
Сообщений: 2078
Обитает:
Последний раз был:
cегодня в 17:41




Архивы в порядке, спасибо !
Top
1 человек просматривает эту тему (1 гость)
« Предыдущая тема | Зарубежные фильмы | Следующая тема »


 



[Script Execution time: 0,0624]   [23 queries used]   [GZIP enabled]