Заходят многие - остаются лучшие!
Здравствуйте Гость ( Вход | Регистрация ) Выслать повторно письмо для активации
Вход
Ваше имя Пароль Забыли пароль?
Запомнить Вас?
Войти скрытым?



Новые сообщения раздела  

 

 Пума! / National Geographic. Puma! (2012), National Geographic
bornik
  №1 Отправлено: 29.08.2017 - 19:00


Воспоминания - это богатства старости.

Группа: Модераторы
Регистрация: 18.08.2008
Сообщений: 966
Обитает:
На форуме с:
cегодня в 05:03




Пума! / National Geographic. Puma! (2012)



«Пума!» - фильм о самых скромных и обаятельных больших кошках в мире.

Название: Пума!
Оригинальное название: Puma!
Год выпуска: 2012
Жанр: Документальный, природа, фауна, флора
Выпущено: США, NDR Naturfilm-Studio Hamburg Doclihts GMBH, National Geographic
Продолжительность: 00:44:59
Субтитры: Русские (мои)

Режиссёр: Уве Мюллер / Uwe Muller

Программа озвучена студией "АРК•ТВ"
Текст читает: Денис Некрасов

Описание: Этот фильм рассказывает историю одной из самых скромных кошек в мире. Мы наблюдаем за самкой пумы и за ее тремя малышами, за тем, как они учатся у своей мамы, как они подкрадываются к гуанако и как они делаются "невидимыми", когда жертва приближается или когда мама уходит на охоту. Мать-пума должна быть хорошим охотником. Но успех ее охоты необходим не только ее малышам. Южноамериканские серые лисы, кондоры и другие падальщики и хищники с нетерпением ждут результатов охоты пумы...








General
Complete name : C:\DVD documental fimls\Пума!\Пума! (2012).avi
Format : AVI
Format/Info : Audio Video Interleave
File size : 710 MiB
Duration : 44mn 59s
Overall bit rate : 2 205 Kbps
Writing application : VirtualDubMod 1.5.10.2 (build 2540/release)
Writing library : VirtualDubMod build 2540/release

Video
ID : 0
Format : MPEG-4 Visual
Format profile : Advanced Simple@L5
Format settings, BVOP : 2
Format settings, QPel : No
Format settings, GMC : No warppoints
Format settings, Matrix : Default (H.263)
Muxing mode : Packed bitstream
Codec ID : XVID
Codec ID/Hint : XviD
Duration : 44mn 59s
Bit rate : 2 004 Kbps
Width : 720 pixels
Height : 400 pixels
Display aspect ratio : 16:9
Frame rate : 25.000 fps
Color space : YUV
Chroma subsampling : 4:2:0
Bit depth : 8 bits
Scan type : Progressive
Compression mode : Lossy
Bits/(Pixel*Frame) : 0.278
Stream size : 645 MiB (91%)
Writing library : XviD 65

Audio
ID : 1
Format : MPEG Audio
Format version : Version 1
Format profile : Layer 3
Mode : Joint stereo
Mode extension : MS Stereo
Codec ID : 55
Codec ID/Hint : MP3
Duration : 44mn 59s
Bit rate mode : Constant
Bit rate : 192 Kbps
Channel(s) : 2 channels
Sampling rate : 48.0 KHz
Compression mode : Lossy
Stream size : 61.8 MiB (9%)
Alignment : Aligned on interleaves
Interleave, duration : 40 ms (1.00 video frame)
Interleave, preload duration : 504 ms
Writing library : LAME3.98r
Encoding settings : -m j -V 4 -q 3 -lowpass 18.6 -b 192


Записались на автоматическое включение в очередь: Alevtina, Nadejdaenergia, baziss, grival406

Если вы хотите, чтобы вас автоматически ставили в очередь на следующие фильмы о природе,
- сообщите об этом в теме последней раздачи.


=================================

Исходником послужил релиз HDTV, найденный на просторах инета!

Архивы созданы RAR-архиватором с добавлением 3% на восстановление и снабжены sfv-проверочником.
Просьба к первому скачавшему отписаться о сохранности архивов на источнике раздачи.

Раздача рассчитана на месяц.

ПРИЯТНОГО ВСЕМ ПРОСМОТРА !!!




--------------------
Безоблачная старость – это миф,
Поскольку наша память – ширь морская,
И к ночи начинается прилив,
Со дна обломки прошлого таская.
Игорь Губерман

Скрыть подпись


lmilchin
№2 Отправлено: 29.08.2017 - 23:12


Посетитель

Группа: Пользователи
Регистрация: 12.11.2009
Сообщений: 115
Обитает:
Последний раз был:
cегодня в 01:51




Bornik, спасибо. Архив в порядке.
Top
bornik
№3 Отправлено: 30.08.2017 - 01:56


Воспоминания - это богатства старости.

Группа: Модераторы
Регистрация: 18.08.2008
Сообщений: 966
Обитает:
На форуме с:
cегодня в 05:03




Цитата
( lmilchin @ 29.08.2017 - 23:12)
Bornik, спасибо. Архив в порядке.

И Вам, lmilchin, спасибо за добрую весть. happy_fly.gif


--------------------
Безоблачная старость – это миф,
Поскольку наша память – ширь морская,
И к ночи начинается прилив,
Со дна обломки прошлого таская.
Игорь Губерман

Скрыть подпись
Top
Alevtina
№4 Отправлено: 30.08.2017 - 12:57


Время камни собирать...

Группа: Аксакалы
Регистрация: 12.02.2009
Сообщений: 5571
Обитает:
Последний раз был:
вчера в 18:40




Пумы, какие же они красавицы!!! Боря, спасибо!!! zdarov1.gif


--------------------

Прохожие, купите Доброту!
Лишь за улыбку! Разве ж это много!
Исполните заветную мечту…
И хоть одну из Заповедей Бога!
Снимите маски «гордых» и «крутых»
Купите, хоть немножечко, Терпенья.
И ощутите сердцем, хоть на миг,
Всю прелесть и восторг благодаренья!
Сегодня, АКЦИЯ на Совесть и Любовь!
Притормозите «хаммер» свой, иль «буммер»!
Купите! И волнуйте свою кровь!
От этого ещё никто не умер!


Скрыть подпись
Top
bornik
№5 Отправлено: 30.08.2017 - 16:14


Воспоминания - это богатства старости.

Группа: Модераторы
Регистрация: 18.08.2008
Сообщений: 966
Обитает:
На форуме с:
cегодня в 05:03




Цитата
( Alevtina @ 30.08.2017 - 12:57)
Пумы, какие же они красавицы!!! Боря, спасибо!!! zdarov1.gif

Alevtina, я рад был Вам угодить. Пожалуйста.


--------------------
Безоблачная старость – это миф,
Поскольку наша память – ширь морская,
И к ночи начинается прилив,
Со дна обломки прошлого таская.
Игорь Губерман

Скрыть подпись
Top
1 человек просматривает эту тему (1 гость)
« Предыдущая тема | Мир вокруг нас | Следующая тема »


 



[Script Execution time: 0,0352]   [23 queries used]   [GZIP enabled]