Заходят многие - остаются лучшие!
Здравствуйте Гость ( Вход | Регистрация ) Выслать повторно письмо для активации
Вход
Ваше имя Пароль Забыли пароль?
Запомнить Вас?
Войти скрытым?



 Правила раздела Новые сообщения раздела  


 

 Шоу для троих / Three for the Show (1955), Бетти Грэйбл, Джек Леммон
surzhoks
  №1 Отправлено: 3.01.2017 - 20:00


Старожил

Группа: Аксакалы
Регистрация: 17.03.2008
Сообщений: 961
Обитает:
Последний раз был:
19.08.2017 - 22:03




Шоу для троих / Three for the Show


Страна: США
Студия: Columbia Pictures Corporation
Жанр: мюзикл, комедия
Год выпуска: 1955
Продолжительность: 01:28:40
Режиссер: Г.К. Поттер / H.C. Potter
Композитор: Джордж Данинг / George Duning
В ролях:
Бетти Грэйбл / Betty Grable ... Julie Lowndes
Мардж Чэмпион / Marge Champion ... Gwen Howard
Гауэр Чемпион / Gower Champion ... Vernon Lowndes
Джек Леммон / Jack Lemmon ... Martin «Marty» Stewart
Майрон МакКормик / Myron McCormick ... Mike Hudson
Леон Элтон / Leon Alton ... Bit Role, в титрах не указан
Том Энтони / Tom Anthony ... Bit Role, в титрах не указан
Роберт Байс / Robert Bice ... Sgt. Charlie O'Hallihan, в титрах не указан
Юджин Борден / Eugene Borden ... Costume Designer, в титрах не указан
Эйлин Карлайл / Aileen Carlyle ... Mother, в титрах не указана
Хэл К. Доусон / Hal K. Dawson ... Theatre Treasuer, в титрах не указан
Бесс Флауэрс / Bess Flowers ... Theatre Patron in Loge, в титрах не указана
Кеннет Гибсон / Kenneth Gibson ... Bit Role, в титрах не указан
Пол Харви / Paul Harvey ... Col. Harold J. Wharton, в титрах не указан
Кеннер Дж. Кемп / Kenner G. Kemp ... Hotel Doorman, в титрах не указан

Описание: Получив извещение о том,что ее муж погиб во время боевых действий в Корее, звезда эстрады Джули выходит замуж за коллегу по музыкальной сцене. Впрочем, вскоре её первый муж возвращается домой живым и здоровым, что ставит Джули перед выбором между двумя мужчинами.
По мотивам пьесы Уильяма Сомерсета Моэма „Home and Beauty“.

Раздача посвящена 100-летию Бетти Грэйбл ( 18 декабря, 1916 - 2 июля, 1973 )
Доп. информация:
Огромное спасибо всем причастным к релизу:
рип - Магда,
перевод и озвучивание фильма - fiendover (Виктор Рутилов),
создание субтитров на песни (по переводу Виктора Рутилова) - - Северный,
работа со звуком и реавторинг исходного DVD- rjhlb777,
финансовая поддержка перевода и озвучивания фильма:
Магда, Lafajet, jasenka, елена 22, yanaelisa, leoder, surzhoks, voostorg, mumzik69, Patsy+, keg38, Ugo927, and76sss, HippopotamusIV, BaluBaly

Архивы созданы RAR-архиватором с добавлением 3% на восстановление и снабжены sfv-проверочником.
Просьба к первому скачавшему отписаться о сохранности архивов на источнике раздачи.

Раздача рассчитана на 2 месяца. На просмотр линка и скачивание 5 дней!
В случае если вы встали в очередь, а затем отказываетесь от скачивания без объяснения причин, возможен отказ в последующих моих раздачах.



Полное имя :Three for the Show.avi
Формат : AVI
Формат/Информация : Audio Video Interleave
Размер файла : 1,37 Гбайт
Продолжительность : 1 ч. 28 м.
Общий поток : 2211 Кбит/сек
Программа кодирования : VirtualDubMod 1.5.10.3 | www.virtualdub-fr.org || (build 2550/release)
Библиотека кодирования : VirtualDubMod build 2550/release

Видео
Идентификатор : 0
Формат : MPEG-4 Visual
Профиль формата : Advanced Simple@L5
Параметр BVOP формата : 2
Параметр QPel формата : Нет
Параметр GMC формата : Без точки перехода
Параметр матрицы формата : Default (H.263)
Идентификатор кодека : DX50
Идентификатор кодека/Подсказка : DivX 5
Продолжительность : 1 ч. 28 м.
Битрейт : 1813 Кбит/сек
Ширина : 720 пикселей
Высота : 304 пикселя
Соотношение сторон : 2,35:1
Частота кадров : 23,976 кадра/сек
Цветовое пространство : YUV
Субдискретизация насыщенности : 4:2:0
Битовая глубина : 8 бит
Тип развёртки : Прогрессивная
Метод сжатия : С потерями
Бит/(Пиксели*Кадры) : 0.345
Размер потока : 1,12 Гбайт (82%)
Библиотека кодирования : XviD 73

Аудио #1
Идентификатор : 1
Формат : AC-3
Формат/Информация : Audio Coding 3
Расширение режима : CM (complete main)
Параметр Endianness формата : Big
Идентификатор кодека : 2000
Продолжительность : 1 ч. 28 м.
Вид битрейта : Постоянный
Битрейт : 192 Кбит/сек
Каналы : 2 канала
Расположение каналов : Front: L R
Частота : 48,0 КГц
Битовая глубина : 16 бит
Метод сжатия : С потерями
Размер потока : 122 Мбайт (9%)
Выравнивание : Разделение по промежуткам
Продолжительность промежутка : 42 мс. (1,00 видеокадр)
Время предзагрузки промежутка : 500 мс.

Аудио #2
Идентификатор : 2
Формат : AC-3
Формат/Информация : Audio Coding 3
Расширение режима : CM (complete main)
Параметр Endianness формата : Big
Идентификатор кодека : 2000
Продолжительность : 1 ч. 28 м.
Вид битрейта : Постоянный
Битрейт : 192 Кбит/сек
Каналы : 2 канала
Расположение каналов : Front: L R
Частота : 48,0 КГц
Битовая глубина : 16 бит
Метод сжатия : С потерями
Размер потока : 122 Мбайт (9%)
Выравнивание : Разделение по промежуткам
Продолжительность промежутка : 42 мс. (1,00 видеокадр)
Время предзагрузки промежутка : 500 мс.




--------------------
Искусство откладывать деньги сводится к умению сказать “нет” потребительскому обществу.

Скрыть подпись


сергей0808
№2 Отправлено: 3.01.2017 - 22:06


Старожил

Группа: Пользователи
Регистрация: 5.08.2009
Сообщений: 883
Обитает:
Последний раз был:
21.08.2017 - 15:23




Архивы удачно собрались. Благодарю за фильм.
Top
1 человек просматривает эту тему (1 гость)
« Предыдущая тема | Зарубежные фильмы | Следующая тема »


 



[Script Execution time: 0,0333]   [22 queries used]   [GZIP enabled]