Заходят многие - остаются лучшие!
Здравствуйте Гость ( Вход | Регистрация ) Выслать повторно письмо для активации
Вход
Ваше имя Пароль Забыли пароль?
Запомнить Вас?
Войти скрытым?



Новые сообщения раздела  

 

 Любаша (1978), Старое советское кино, экранизация
медикус
  №1 Отправлено: 30.07.2016 - 18:30


Живёт здесь

Группа: Модераторы
Регистрация: 22.07.2008
Сообщений: 9747
Обитает:
Последний раз был:
cегодня в 08:51




Любаша



Раздача на форуме
Предыдущая раздача 26.07.2007 г.

«Любаша» - советский художественный фильм режиссёра Aлeкcaндpа Mуpaтoва, поставленный в 1978 году пo oднoимённoй пoвecти Василия Maтyшкинa.

Год выпуска: 1978
Жанр: Военный, детский, экранизация
Выпущено: СССР, Киностудия им. А. Довженко, Творческое объединение "Юность"
Премьера (СССР): июль 1979 года

Режиссёр: Aлeкcaндp Mуpaтoв

В ролях:
Лена Холодова … Любаша Егорова, старшая сестра
Коля Лаврентьев … младший брат Любаши
Серёжа Белов (II) … младший брат Любаши
Таня Фирсик … Марийка, младшая сестра Любаши
Фёдор Панасенко … Флегонт Якимович, инвалид, председатель колхоза
Мария Маркова … баба Матрена, соседка Любаши
Римма Маркова … Сергеевна, колхозница
Серёжа Кичигин … Николка, сын Сергеевны
Борис Бронников … Андрей Егоров, отец Любаши, сапёр
Ирина Бразговка … Настя, молодая женщина, солдатка с детьми
Светлана Зайцева … тётка Полина
Фёдор Батманов … дедушка Яков, колхозник, возница
Виктор Мирошниченко … раненый в руку моряк (нет в титрах)

Сценарист: Александр Муратов, Василий Матушкин
Оператор: Александр Яновский
Художник: Михаил Раковский

Описание: Кинолента раскрывает события, происходящие в Великую Отечественную войну.
В простой украинской семье, когда начинается война, на фронт уходит отец, вскоре, после его ухода умирает мать, все дети семьи остаются одни. Старшая сестра, четырнадцатилетняя Люба, берёт на себя обязанности родителей, ей приходится нелегко, но она ни в коем случае не сдаётся, ведь младшие без неё погибнут.


• Фильм был отмечен вторым призом в разделе детских фильмов, призом зрителей на Всесоюзном кинофестивале 1979 года в Ашхабаде.











=================================

Релиз от kingsun, взятый с КИНОЗАЛ.ТВ, за что ему БОЛЬШОЕ СПАСИБО!



Архивы созданы RAR-архиватором с добавлением 3% на восстановление и снабжены sfv-проверочником.



ПРИЯТНОГО ВСЕМ ПРОСМОТРА !!!



General
Complete name : C:\Cinema\Любаша (1978) TVRip.avi
Format : AVI
Format/Info : Audio Video Interleave
File size : 1.24 GiB
Duration : 1h 14mn
Overall bit rate : 2 400 Kbps
Writing library : VirtualDub build 31953/release

Video
ID : 0
Format : MPEG-4 Visual
Format profile : Advanced Simple@L5
Format settings, BVOP : 2
Format settings, QPel : No
Format settings, GMC : No warppoints
Format settings, Matrix : Default (MPEG)
Muxing mode : Packed bitstream
Codec ID : XVID
Codec ID/Hint : XviD
Duration : 1h 14mn
Bit rate : 2 199 Kbps
Width : 720 pixels
Height : 528 pixels
Display aspect ratio : 4:3
Frame rate : 25.000 fps
Color space : YUV
Chroma subsampling : 4:2:0
Bit depth : 8 bits
Scan type : Progressive
Compression mode : Lossy
Bits/(Pixel*Frame) : 0.231
Stream size : 1.14 GiB (92%)
Writing library : XviD 64

Audio
ID : 1
Format : MPEG Audio
Format version : Version 1
Format profile : Layer 3
Mode : Joint stereo
Codec ID : 55
Codec ID/Hint : MP3
Duration : 1h 14mn
Bit rate mode : Constant
Bit rate : 192 Kbps
Channel(s) : 2 channels
Sampling rate : 48.0 KHz
Compression mode : Lossy
Stream size : 102 MiB (8%)
Alignment : Split accross interleaves
Interleave, duration : 40 ms (1.00 video frame)
Interleave, preload duration : 500 ms


Другое участие: kingsun – предоставление исходной записи


Параметры рипа:
Размер: 1,24 ГБ
Источник рипа: TV
Продолжительность: 01:14:13
Субтитры: Отсутствуют
Параметры видео: 720x528 (1.36:1), 25 fps, XviD MPEG-4 ~2198 kbps avg, 0.23 bit/pixel
Параметры звука: 48 kHz, MPEG Layer 3, 2 ch, ~192.00 kbps avg
Данные на архив:
Сдал в архив: медикус
Для получения линка и пароля достаточно ответить в тему или нажать кнопку "Спасибо".


1 человек просматривает эту тему (1 гость)
« Предыдущая тема | Детские фильмы. Архив | Следующая тема »


 



[Script Execution time: 0,0148]   [22 queries used]   [GZIP enabled]