Заходят многие - остаются лучшие!
Здравствуйте Гость ( Вход | Регистрация ) Выслать повторно письмо для активации
Вход
Ваше имя Пароль Забыли пароль?
Запомнить Вас?
Войти скрытым?



 Правила раздела Новые сообщения раздела  


 

 Соблазнитель / Il seduttore (1954), Комедия;Реж-Ф.Росси;Роли-А.Сорди,Л.Падовани,Л.Аманда
SanSan48
  №1 Отправлено: 14.01.2018 - 09:49


"Спартак" - ЧЕМПИОН!!!

Группа: Пользователи
Регистрация: 28.12.2009
Сообщений: 1892
Обитает:
Последний раз был:
позавчера в 13:18




Соблазнитель / Il seduttore (1954)



Жанр: Комедия
Выпущено: Италия, Vides Cinematografica
Год выпуска: 1954
Премьера (мир): 26 октября 1954 (Италия), 16 августа 1957 (Португалия)
Сценаристы: Диего Фаббри / Diego Fabbri, Оттавио Алесси / Ottavio Alessi, Леонардо Бенвенути / Leonardo Benvenuti, Уго Гуэрра / Ugo Guerra, Гуидо Леони / Guido Leoni, Джорджо Проспери / Giorgio Prosperi, Рауль Радице / Raul Radice, Франко Росси / Franco Rossi, Родольфо Сонего / Rodolfo Sonego
Оператор: Альфиери Канаверо / Alfieri Canavero
Композитор: Карло Инноченци / Carlo Innocenzi
Художники: Джанни Полидори / Gianni Polidori, Джованна Натили / Giovanna Natili, Винченцо Дель Прато / Vincenzo Del Prato
Монтажёр: Отелло Коланджели / Otello Colangeli

Режиссёр: Франко Росси / Franco Rossi

В ролях:
Альберто Сорди / Alberto Sordi ... Alberto Ranieri
Леа Падовани / Lea Padovani ... Norma
Лия Аманда / Lia Amanda ... Natalina Spencer
Жаклин Пьерро / Jacqueline Pierreux ... Jacqueline
Дениз Грей / Denise Grey ... Jacqueline's Mother
Чиччо Барби / Ciccio Barbi ... Ragionier Abele
Мино Доро / Mino Doro ... Commendatore
Марчелло Джорда / Marcello Giorda ... Colonel Dozzi Palù
Нино Винджелли / Nino Vingelli ... Onofrio
Ева Ваничек / Eva Vanicek ... Alberto's young Colleague
Пина Боттин / Pina Bottin ... Giulia
Мара Берни / Mara Berni ... The blonde Colleague on the Train
Дино Раффаелли / Dino Raffaelli ... Don Umberto
Джанна Пьяц / Gianna Piaz ... Bini
Роберто Бертеа / Roberto Bertea ... Lo Bianco

Описание: По пьесе Диего Фаббри (Diego Fabbri).
Альберто - тридцатилетний женатый римлянин, одержимый навязчивой идеей соблазнить побольше женщин, попадает в неприятную ситуацию, пытаясь завести роман одновременно с двумя иностранками…

Дополнительная информация: Релиз:

Исходник найден в сети.

Автор рипа: pmv

Большое спасибо за:
- Перевод, озвучивание и русские субтитры – Urasik

* Особая благодарность автору перевода и озвучки Urasik’у , сумевшему прекрасно передать многословный «высокоскоростной» темп монологов и диалогов, присущий колоритному итальянскому языку.

* В архивной папке содержатся также английские субтитры.

IMDb = 6,5/10 (77) - http://www.imdb.com/title/tt0047466/
Кинопоиск = - (9) - https://www.kinopoisk.ru/film/soblaznitel-1954-223112/

ВНИМАНИЕ!!! РИП ФОРМАТА mkv (кодек H.264) ВОСПРОИЗВОДИТСЯ НЕ НА ВСЕХ БЫТОВЫХ ВИДЕОПЛЕЕРАХ!!!

Параметры файла:
Название: Il Seduttore (1954, rus_VO+ita+rus_sub).mkv
Качество видео: DVDrip-AVC
Формат видео: MKV
Размер: 1,46 ГБ (1 568 822 744 байт)
Продолжительность: 01:34:05
Перевод: Одноголосый закадровый – Urasik
Субтитры: русские – Urasik
Субтитры: английские (отдельным файлом)
Оригинальная аудиодорожка: итальянский
Видео: AVC (H264), 704@768x576 (4:3), 25 fps, 1900 kbps, 0.187 Bits/Pixel
Аудио #1:AC3, 48 kHz, stereo (2 ch), 192 kbps - русский
Аудио #2: AC3, 48 kHz, mono, 128 kbps - итальянский



General
Unique ID : 61965748958240148276043601541915325368 (0x2E9E2B4D0DE838ECB720961C5DD5B3B8)
Complete name : D:\torrents\Il Seduttore (1954, rus_VO+ita+rus_sub).mkv
Format : Matroska
Format version : Version 4 / Version 2
File size : 1.46 GiB
Duration : 1 h 34 min
Overall bit rate : 2 223 kb/s
Encoded date : UTC 2017-12-27 00:04:22
Writing application : mkvmerge v19.0.0 ('Brave Captain') 64-bit
Writing library : libebml v1.3.5 + libmatroska v1.4.8

Video
ID : 1
Format : AVC
Format/Info : Advanced Video Codec
Format profile : High@L4.1
Format settings, CABAC : Yes
Format settings, ReFrames : 16 frames
Codec ID : V_MPEG4/ISO/AVC
Duration : 1 h 34 min
Bit rate : 1 900 kb/s
Width : 704 pixels
Height : 576 pixels
Display aspect ratio : 4:3
Original display aspect ratio : 1.222
Frame rate mode : Constant
Frame rate : 25.000 FPS
Standard : PAL
Color space : YUV
Chroma subsampling : 4:2:0
Bit depth : 8 bits
Scan type : Progressive
Bits/(Pixel*Frame) : 0.187
Stream size : 1.25 GiB (86%)
Writing library : x264 core 146 r2538 121396c
Encoding settings : cabac=1 / ref=16 / deblock=1:0:0 / analyse=0x3:0x133 / me=umh / subme=10 / psy=1 / psy_rd=1.00:0.00 / mixed_ref=1 / me_range=24 / chroma_me=1 / trellis=2 / 8x8dct=1 / cqm=0 / deadzone=21,11 / fast_pskip=1 / chroma_qp_offset=-2 / threads=42 / lookahead_threads=4 / sliced_threads=0 / nr=0 / decimate=1 / interlaced=0 / bluray_compat=0 / constrained_intra=0 / bframes=8 / b_pyramid=2 / b_adapt=2 / b_bias=0 / direct=3 / weightb=1 / open_gop=0 / weightp=2 / keyint=250 / keyint_min=25 / scenecut=40 / intra_refresh=0 / rc_lookahead=60 / rc=2pass / mbtree=1 / bitrate=1900 / ratetol=1.0 / qcomp=0.60 / qpmin=0 / qpmax=69 / qpstep=4 / cplxblur=20.0 / qblur=0.5 / ip_ratio=1.40 / aq=1:1.00
Language : Italian
Default : Yes
Forced : No

Audio #1
ID : 2
Format : AC-3
Format/Info : Audio Coding 3
Mode extension : CM (complete main)
Format settings, Endianness : Big
Codec ID : A_AC3
Duration : 1 h 34 min
Bit rate mode : Constant
Bit rate : 192 kb/s
Channel(s) : 2 channels
Channel positions : Front: L R
Sampling rate : 48.0 kHz
Frame rate : 31.250 FPS (1536 spf)
Bit depth : 16 bits
Compression mode : Lossy
Stream size : 129 MiB (9%)
Language : Russian
Default : Yes
Forced : No

Audio #2
ID : 3
Format : AC-3
Format/Info : Audio Coding 3
Mode extension : CM (complete main)
Format settings, Endianness : Big
Codec ID : A_AC3
Duration : 1 h 34 min
Bit rate mode : Constant
Bit rate : 128 kb/s
Channel(s) : 1 channel
Channel positions : Front: C
Sampling rate : 48.0 kHz
Frame rate : 31.250 FPS (1536 spf)
Bit depth : 16 bits
Compression mode : Lossy
Stream size : 86.1 MiB (6%)
Language : Italian
Default : No
Forced : No

Text
ID : 4
Format : UTF-8
Codec ID : S_TEXT/UTF8
Codec ID/Info : UTF-8 Plain Text
Duration : 1 h 33 min
Bit rate : 166 b/s
Count of elements : 1517
Stream size : 114 KiB (0%)
Language : Russian
Default : No
Forced : No








МОИ РАЗДАЧИ НА ФЕНИКСе: ЗДЕСЬ




Это сообщение отредактировал SanSan48 - 14.01.2018 - 10:39


--------------------
"Спартак" - ЧЕМПИОН!!!

Скрыть подпись
kyo
№2 Отправлено: 14.01.2018 - 11:57


Живёт здесь

Группа: Потребители
Регистрация: 21.07.2007
Сообщений: 1957
Обитает:
Последний раз был:
19.05.2018 - 04:30




Архивы в порядке, спасибо !
Top
SanSan48
№3 Отправлено: 14.01.2018 - 12:02


"Спартак" - ЧЕМПИОН!!!

Группа: Пользователи
Регистрация: 28.12.2009
Сообщений: 1892
Обитает:
Последний раз был:
позавчера в 13:18




Цитата
( kyo @ 14.01.2018 - 11:57)
Архивы в порядке, спасибо !

kyo, Благодарю за сообщение!

Приятного всем просмотра!


--------------------
"Спартак" - ЧЕМПИОН!!!

Скрыть подпись
Top
1 человек просматривает эту тему (1 гость)
« Предыдущая тема | Зарубежные фильмы | Следующая тема »


 



[Script Execution time: 0,0244]   [23 queries used]   [GZIP enabled]