Заходят многие - остаются лучшие!
Здравствуйте Гость ( Вход | Регистрация ) Выслать повторно письмо для активации
Вход
Ваше имя Пароль Забыли пароль?
Запомнить Вас?
Войти скрытым?



 Правила раздела Новые сообщения раздела  


 

 Венгерский набоб / Egy magyar nábob (1966) [Полная оригинальная версия], Драма,история;Реж-З.Варкони;Роли-Ф.Бешшенеи,З.Латинович,Е.Рутткаи
SanSan48
  №1 Отправлено: 12.08.2019 - 19:20


"Спартак" - ЧЕМПИОН!!!

Группа: Пользователи
Регистрация: 28.12.2009
Сообщений: 2092
Обитает:
Последний раз был:
вчера в 09:42




Венгерский набоб / Egy magyar nábob (1966) [Полная оригинальная версия]



Предыдущие раздачи:
02.11.2010 (DVDrip)
27.05.2007 (DVDrip)
28.06.2007 (DVDrip) (Архив)
25.05.2007 (DVD5)

Жанр: Драма, исторический
Выпущено: Венгрия, MAFILM
Год выпуска: 1966
Премьера (мир): 22 декабря 1966 (Венгрия), 14 июля 1967 (Германия (ГДР))
Премьера (СССР): 7 августа 1967 (27 000 000 чел.)
Сценарист: Янош Эрдёди / János Erdödy
Оператор: Иштван Хильдебранд / István Hildebrand
Композитор: Ференц Фаркаш / Ferenc Farkas
Художники: Бела Цайхан / Béla Zeichan, Рудольф Лэнг / Rudolf Lang, Болдижар Шимонка / Boldizsár Simonka
Монтажёр: Ференц Сеченьи / Ferencné Szécsényi

Режиссёр: Золтан Варкони / Zoltán Várkonyi

В ролях:
Ференц Бешшенеи / Ferenc Bessenyei ... Kárpáthy János - дублирует Алексей Алексеев
Иван Дарваш / Iván Darvas ... Kárpáthy Abellino - дублирует Артем Карапетян
Золтан Латинович / Zoltán Latinovits ... Szentirmay Rudolf - дублирует Феликс Яворский
Тибор Бичкеи / Tibor Bitskey ... Kis Miska - дублирует Владимир Ферапонтов
Лайош Башти / Lajos Básti ... Wesselényi Miklós - дублирует Аркадий Толбузин ???
Ева Рутткаи / Éva Ruttkai ... Szentirmayné, Flóra - дублирует Светлана Коновалова
Ева Пап / Éva Pap ... Mayer Fanni - дублирует Мария Виноградова
Тери Тордаи / Teri Tordai ... Chataquela - дублирует Виктория Чаева
Мария Шуйок / Mária Sulyok ... Mayerné - дублирует Нина Никитина
Золтан Варкони / Zoltán Várkonyi ... Maszlaczky - дублирует Олег Мокшанцев
Тамаш Майор / Tamás Major ... Griffard
Золтан Маклари / Zoltán Makláry ... Boltai György
Габор Агарди / Gábor Agárdi ... Kutyafalvy András
Ева Алмаши / Éva Almási ...
Дьюла Бенкё / Gyula Benkö ... Fegyverneky

Описание: По одноимённому роману Мора Йокаи (Mór Jókai).
Действие фильма происходит в первой половине XVIII века. Несколько десятилетий жизни венгерского дворянского рода Карпати пройдёт перед зрителями. Дворяне сорят деньгами, гуляют, играют в карты, дерутся на дуэлях.
Пожилой глава старинного рода – Янош Карпати (Ференц Бешшенеи), женится на молодой и красивой девушке Фанни Майер (Ева Пап), которая дарит ему наследника…

Дополнительная информация:
Релиз:

Исходник найден в сети.

Автор рипа: pmv

Большое спасибо за:
- аудиодорожку с советским дубляжом с раздачи https://ru-tr-ac-ker.org/forum/viewtopic.php?t=3389482 - bm11
- синхронизацию звуковой дорожки с советским дубляжом - pmv

* На отсутствующие в советском дубляже эпизоды (около 3 минут) вставлены русские (форсированные) субтитры - около 3 минут.

Фильм дублирован на Центральной студии киноактёра «Мосфильм» и выпущен в прокат 7 августа 1967 года.
Режиссёр дубляжа: Евгений Алексеев
Звукооператор: Р.Казарян
Автор русского синхронного текста: Алексей Алексеев
Редактор: Л.Балашова
Роли дублировали: Алексей Алексеев, Артем Карапетян, Феликс Яворский, Владимир Ферапонтов, Светлана Коновалова, Мария Виноградова, Виктория Чаева, Нина Никитина, Олег Мокшанцев, Леонид Пирогов, Аркадий Толбузин ???

* О дальнейшей судьбе героев этого фильма рассказывается в кинокартине «Венгерский набоб 2» («Судьба Золтана Карпати»). Вторая часть фильма раздаётся здесь - http://fenixclub.com/index.php?showtopic=1...=0#entry8771105

IMDb = 7,1/10 (239) - https://www.imdb.com/title/tt0060652/
Кинопоиск = 6.055 (108) - https://www.kinopoisk.ru/film/69234/

ВНИМАНИЕ!!! РИП ФОРМАТА mkv (кодек H.264) ВОСПРОИЗВОДИТСЯ НЕ НА ВСЕХ БЫТОВЫХ ВИДЕОПЛЕЕРАХ!!!

Параметры файла:
Название: Egy magyar nabob (1966, sov_dubl+hun+eng.sub).mkv
Качество видео: DVDRip-AVC
Формат видео: MKV
Размер: 1,36 ГБ (1 461 750 078 байт)
Продолжительность: 01:33:28
Перевод: Профессиональный (дублированный) - к/с «Мосфильм»
Субтитры: русские (форсированные) – на вырезанные в дубляже эпизоды (около 3 минут)
Субтитры: английские
Оригинальная аудиодорожка: венгерская
Видео: AVC (H264), 720@1015x432 (2.35:1), 25 fps, 1700 kbps, 0.219 Bits/Pixel
Аудио #1: AC3, 48 KHz, stereo (2 ch), 192 kbps – советский дубляж
Аудио #2: AC3, 48 KHz, stereo (2 ch), 192 kbps - венгерский



General
Unique ID : 222208370902914058323935170829959660544 (0xA72BC689E3FAD2718DDB8BFDA9798400)
Complete name : D:\torrents\Egy magyar nabob (1966, sov_dubl+hun+eng.sub).mkv
Format : Matroska
Format version : Version 4 / Version 2
File size : 1.36 GiB
Duration : 1 h 33 min
Overall bit rate : 2 085 kb/s
Encoded date : UTC 2019-08-11 08:22:16
Writing application : mkvmerge v6.7.0 ('Back to the Ground') 32bit built on Jan 8 2014 15:03:17
Writing library : libebml v1.3.0 + libmatroska v1.4.1

Video
ID : 1
Format : AVC
Format/Info : Advanced Video Codec
Format profile : High@L4.1
Format settings, CABAC : Yes
Format settings, RefFrames : 16 frames
Codec ID : V_MPEG4/ISO/AVC
Duration : 1 h 33 min
Bit rate : 1 700 kb/s
Width : 720 pixels
Height : 432 pixels
Display aspect ratio : 2.35:1
Original display aspect ratio : 5:3
Frame rate mode : Constant
Frame rate : 25.000 FPS
Color space : YUV
Chroma subsampling : 4:2:0
Bit depth : 8 bits
Scan type : Progressive
Bits/(Pixel*Frame) : 0.219
Stream size : 1.08 GiB (80%)
Writing library : x264 core 146 r2538 121396c
Encoding settings : cabac=1 / ref=16 / deblock=1:0:0 / analyse=0x3:0x133 / me=umh / subme=10 / psy=1 / psy_rd=1.00:0.00 / mixed_ref=1 / me_range=24 / chroma_me=1 / trellis=2 / 8x8dct=1 / cqm=0 / deadzone=21,11 / fast_pskip=1 / chroma_qp_offset=-2 / threads=48 / lookahead_threads=3 / sliced_threads=0 / nr=0 / decimate=1 / interlaced=0 / bluray_compat=0 / constrained_intra=0 / bframes=8 / b_pyramid=2 / b_adapt=2 / b_bias=0 / direct=3 / weightb=1 / open_gop=0 / weightp=2 / keyint=250 / keyint_min=25 / scenecut=40 / intra_refresh=0 / rc_lookahead=60 / rc=2pass / mbtree=1 / bitrate=1700 / ratetol=1.0 / qcomp=0.60 / qpmin=0 / qpmax=69 / qpstep=4 / cplxblur=20.0 / qblur=0.5 / ip_ratio=1.40 / aq=1:1.00
Language : Hungarian
Default : Yes
Forced : No

Audio #1
ID : 2
Format : AC-3
Format/Info : Audio Coding 3
Format settings, Endianness : Big
Codec ID : A_AC3
Duration : 1 h 33 min
Bit rate mode : Constant
Bit rate : 192 kb/s
Channel(s) : 2 channels
Channel positions : Front: L R
Sampling rate : 48.0 kHz
Frame rate : 31.250 FPS (1536 SPF)
Bit depth : 16 bits
Compression mode : Lossy
Stream size : 128 MiB (9%)
Language : Russian
Service kind : Complete Main
Default : Yes
Forced : No

Audio #2
ID : 3
Format : AC-3
Format/Info : Audio Coding 3
Format settings, Endianness : Big
Codec ID : A_AC3
Duration : 1 h 33 min
Bit rate mode : Constant
Bit rate : 192 kb/s
Channel(s) : 2 channels
Channel positions : Front: L R
Sampling rate : 48.0 kHz
Frame rate : 31.250 FPS (1536 SPF)
Bit depth : 16 bits
Compression mode : Lossy
Stream size : 128 MiB (9%)
Language : Hungarian
Service kind : Complete Main
Default : No
Forced : No

Text #1
ID : 4
Format : UTF-8
Codec ID : S_TEXT/UTF8
Codec ID/Info : UTF-8 Plain Text
Language : Russian
Default : Yes
Forced : Yes

Text #2
ID : 5
Format : UTF-8
Codec ID : S_TEXT/UTF8
Codec ID/Info : UTF-8 Plain Text
Language : English
Default : No
Forced : No








МОИ РАЗДАЧИ НА ФЕНИКСе: ЗДЕСЬ




Это сообщение отредактировал SanSan48 - 26.08.2019 - 09:45


--------------------
"Спартак" - ЧЕМПИОН!!!

Скрыть подпись


будулай
№2 Отправлено: 12.08.2019 - 20:00


Старожил

Группа: Форумчане
Регистрация: 13.11.2008
Сообщений: 777
Обитает:
Последний раз был:
позавчера в 11:42




Спасибо! Архивы в порядке!
Top
SanSan48
№3 Отправлено: 13.08.2019 - 07:33


"Спартак" - ЧЕМПИОН!!!

Группа: Пользователи
Регистрация: 28.12.2009
Сообщений: 2092
Обитает:
Последний раз был:
вчера в 09:42




Цитата
будулай @ 12.08.2019 - 20:00
Спасибо! Архивы в порядке!

будулай, Благодарю за сообщение!

Приятного всем просмотра!


Это сообщение отредактировал SanSan48 - 13.08.2019 - 11:18


--------------------
"Спартак" - ЧЕМПИОН!!!

Скрыть подпись
Top
1 человек просматривает эту тему (1 гость)
« Предыдущая тема | Советский дубляж | Следующая тема »


 



[Script Execution time: 0,0491]   [24 queries used]   [GZIP enabled]