Заходят многие - остаются лучшие!
Здравствуйте Гость ( Вход | Регистрация ) Выслать повторно письмо для активации
Вход
Ваше имя Пароль Забыли пароль?
Запомнить Вас?
Войти скрытым?



 Правила раздела Новые сообщения раздела  


 

 Гикор / Գիքոր (1982), Старое советское кино, экранизация
bornik
  №1 Отправлено: 9.06.2016 - 09:54


Воспоминания - это богатства старости.

Группа: Модераторы
Регистрация: 18.08.2008
Сообщений: 940
Обитает:
Последний раз был:
cегодня в 17:54




Гикор / Գիքոր



«Гикор» - советский художественный фильм 1982 года, вторая экранизация одноименного рассказа Ованеса Туманяна.

Год выпуска: 1982
Жанр: Драма, семейный
Выпущено: СССР, Арменфильм
Премьера: 15 мая 1982 года (Ереван), октябрь 1982 года (Москва)

Режиссёр: Сергей Исраелян

В ролях:
Альберт Гулинян … Гикор
Армен Джигарханян … Базаз Артем
Сос Саркисян … Амбо
Галя (Галина) Новенц … Нани, мать
Жанна Аветисян … Нато
Эмма Степанян … бабушка
Арутюн Мовсесян … Васо
Лейла Егиазарян … эпизод
Светлана Киракосян … эпизод
Милена Амамджян … эпизод
Тигран Восканян … эпизод
Аветик Джрагацпанян … эпизод
Леонард Саркисов … гость
С. Аджапханян … эпизод
Елизавета Азизян … эпизод
Степан Арутюнян … эпизод
Маргарита Карапетян … эпизод
Михаил Овсепян … эпизод
Каджик Барсегян … эпизод
Камсар Гогинян … эпизод
К. Гулинян … эпизод
Гагик Казарян … эпизод
Анаида Мазманян … эпизод
Карина Овсепян … эпизод
Марина Овсепян … эпизод
Артур Степанян (II) … эпизод

Сценарист: Генрих Малян
Операторы: Степан Мартиросян, Мартын Шахбазян
Композитор: Тигран Мансурян
Художники: Михаил Антонян, Грета Налчаджян

Описание: Крестьянин Амбо решил вывести своего 12-летнего сына Гикора в люди, для этого он везёт его в город, чтобы тот там работал и по возможности выучился. Амбо оставляет сына у купца Артема, в качестве прислуги. Но попал Гикор не в те руки, купец и его семья оказались чёрствыми и алчными людьми. Они нещадно эксплуатируют мальчика. Люди завидовали хорошо одетому и накормленному приказчику, но никто не видел его истинных страданий. Он сильно тосковал по дому и родным краям, особенно по своей корове. Вскоре пришла зима, и простуда настигла истощённого от несладкой жизни Гикора, он слёг. В бреду он даже не узнал отца, приехавшего за ним. Через пару дней Амбо, похоронивший сына, возвращается домой.


• 1982 — XV Всесоюзный кинофестиваль (Таллин) по разделу фильмов для детей и юношества: Второй приз и Диплом фильму «Гикор» (вместе с фильмом «Вот вернётся папа»)








Исходником послужил релиз DVD9 от Slava47, взятый с Рутрекера, за что ему БОЛЬШОЕ СПАСИБО!



Архивы созданы RAR-архиватором с добавлением 3% на восстановление и снабжены sfv-проверочником.
Просьба к первому скачавшему отписаться о сохранности архивов на источнике раздачи.

Раздача рассчитана на месяц.

ПРИЯТНОГО ВСЕМ ПРОСМОТРА !!!



General
Complete name : C:\Cinema\Гикор (1982) DVDRip.avi
Format : AVI
Format/Info : Audio Video Interleave
File size : 1.36 GiB
Duration : 1h 20mn
Overall bit rate : 2 402 Kbps
Writing application : VirtualDubModRus 1.5.10.2 (build 2540/release)
Writing library : VirtualDubMod build 2540/release

Video
ID : 0
Format : MPEG-4 Visual
Format profile : Advanced Simple@L5
Format settings, BVOP : 2
Format settings, QPel : No
Format settings, GMC : No warppoints
Format settings, Matrix : Default (H.263)
Muxing mode : Packed bitstream
Codec ID : XVID
Codec ID/Hint : XviD
Duration : 1h 20mn
Bit rate : 2 003 Kbps
Width : 720 pixels
Height : 544 pixels
Display aspect ratio : 4:3
Frame rate : 25.000 fps
Color space : YUV
Chroma subsampling : 4:2:0
Bit depth : 8 bits
Scan type : Progressive
Compression mode : Lossy
Bits/(Pixel*Frame) : 0.205
Stream size : 1.13 GiB (83%)
Writing library : XviD 65

Audio #1
ID : 1
Format : AC-3
Format/Info : Audio Coding 3
Mode extension : CM (complete main)
Format settings, Endianness : Big
Codec ID : 2000
Duration : 1h 20mn
Bit rate mode : Constant
Bit rate : 192 Kbps
Channel(s) : 2 channels
Channel positions : Front: L R
Sampling rate : 48.0 KHz
Frame rate : 31.250 fps (1536 spf)
Compression mode : Lossy
Stream size : 111 MiB (8%)
Alignment : Split accross interleaves
Interleave, duration : 40 ms (1.00 video frame)
Interleave, preload duration : 500 ms

Audio #2
ID : 2
Format : AC-3
Format/Info : Audio Coding 3
Mode extension : CM (complete main)
Format settings, Endianness : Big
Codec ID : 2000
Duration : 1h 20mn
Bit rate mode : Constant
Bit rate : 192 Kbps
Channel(s) : 2 channels
Channel positions : Front: L R
Sampling rate : 48.0 KHz
Frame rate : 31.250 fps (1536 spf)
Compression mode : Lossy
Stream size : 111 MiB (8%)
Alignment : Split accross interleaves
Interleave, duration : 40 ms (1.00 video frame)
Interleave, preload duration : 500 ms



Другое участие: Slava48 – предоставление исходной записи




--------------------
Безоблачная старость – это миф,
Поскольку наша память – ширь морская,
И к ночи начинается прилив,
Со дна обломки прошлого таская.
Игорь Губерман

Скрыть подпись


bondsun
№2 Отправлено: 9.06.2016 - 14:15


кучерявый

Группа: Потребители
Регистрация: 17.08.2009
Сообщений: 4175
Обитает:
Последний раз был:
cегодня в 09:10





Благодарствую, архивы в порядке.


--------------------
Пусть рушится мир весь вокруг, пополам,
Пусть часто фортуна не прёт.
Не кофе нас должен бодрить по утрам,
А тот, кто его подаёт.

happy.gif

Скрыть подпись
Top
bornik
№3 Отправлено: 9.06.2016 - 15:40


Воспоминания - это богатства старости.

Группа: Модераторы
Регистрация: 18.08.2008
Сообщений: 940
Обитает:
Последний раз был:
cегодня в 17:54




Цитата
( bondsun @ 9.06.2016 - 14:15)
Благодарствую, архивы в порядке.

И Вам, bondsun, спасибо за добрую весть. happy_fly.gif


--------------------
Безоблачная старость – это миф,
Поскольку наша память – ширь морская,
И к ночи начинается прилив,
Со дна обломки прошлого таская.
Игорь Губерман

Скрыть подпись
Top
bornik
№4 Отправлено: 20.07.2016 - 18:15


Воспоминания - это богатства старости.

Группа: Модераторы
Регистрация: 18.08.2008
Сообщений: 940
Обитает:
Последний раз был:
cегодня в 17:54




Всем спасибо.
Очередь закрыта. Если есть желающие - пишите в ПМ. wink2.gif


--------------------
Безоблачная старость – это миф,
Поскольку наша память – ширь морская,
И к ночи начинается прилив,
Со дна обломки прошлого таская.
Игорь Губерман

Скрыть подпись
Top
1 человек просматривает эту тему (1 гость)
« Предыдущая тема | Отечественное кино | Следующая тема »


 



[Script Execution time: 0,0557]   [23 queries used]   [GZIP enabled]