Заходят многие - остаются лучшие!
Здравствуйте Гость ( Вход | Регистрация ) Выслать повторно письмо для активации
Вход
Ваше имя Пароль Забыли пароль?
Запомнить Вас?
Войти скрытым?



 Правила раздела Новые сообщения раздела  


 

 Танго нашего детства / Մեր մանկության տանգոն (1985), Старое советское кино
bornik
  №1 Отправлено: 9.06.2016 - 13:36


Воспоминания - это богатства старости.

Группа: Модераторы
Регистрация: 18.08.2008
Сообщений: 893
Обитает:
Последний раз был:
cегодня в 18:12




Танго нашего детства / Մեր մանկության տանգոն



Предыдущая раздача 20.12.2009 г.

«Танго нашего детства» - художественный фильм Альберта Мкртчяна, частично основанный на воспоминаниях детства самого режиссёра и его брата, актёра Фрунзика Мкртчяна.

Год выпуска: 1985
Жанр: Драма
Выпущено: СССР, Арменфильм
Премьера: 09 февраля 1985 года (Ереван), февраль 1986 года (Москва)

Режиссёр: Альберт Мкртчян

В ролях:
Галя Новенц … Сирануш
Фрунзик Мкртчян … Рубен
Элина Агамян … Вардуш
Азат Гаспарян … Месроп
Наринэ Багдасарян … Рузан
Самвел Саркисян … Армен
Ашот Геворкян … Гагик
Артур Налбандян … Ашот
Артуш Геодакян … Сероб
Маргарита Карапетян … Арпеник
Элеонора Петросян … Кнар
Рубен Мкртчян … Егхиш
В. Вовсесян … Свасьян
Александр Оганесян … Зарзанд
Вреж Акопян … Мелконян
Каджик Барсегян … следователь

Сценарист: Альберт Мкртчян (II)
Оператор: Рудольф Ватинян
Композитор: Тигран Мансурян
Художник: Рафаэль Бабаян (II)



Описание: Вернувшись с войны, Рубен оставляет семью и уходит к женщине, которая спасла ему жизнь. Гордая Сирануш не может смириться с этим и делает попытки образумить Рубена. Нелепые и беспомощные выходки детей и жены доводят его до такого состояния, что он, окончательно запутавшись в своих чувствах, совершает необдуманный поступок и попадает в тюрьму.

1985 — 18 Всесоюзный кинофестиваль (Минск):
• Главный приз в программе художественных фильмов — фильму «Танго нашего детства»;
• Приз и диплом за лучшую женскую роль Гале Новенц в фильме «Танго нашего детства».
Особое упоминание за женскую роль Гали Новенц на международном Венецианском кинофестивале в 1985г.








Исходником послужил релиз DVD9 от Slava47, взятый с Рутрекера, за что ему БОЛЬШОЕ СПАСИБО!



Архивы созданы RAR-архиватором с добавлением 3% на восстановление и снабжены sfv-проверочником.
Просьба к первому скачавшему отписаться о сохранности архивов на источнике раздачи.

Раздача рассчитана на месяц.

ПРИЯТНОГО ВСЕМ ПРОСМОТРА !!!



General
Complete name : C:\Cinema\Танго нашего детства (1985) DVDRip.avi
Format : AVI
Format/Info : Audio Video Interleave
File size : 1.46 GiB
Duration : 1h 27mn
Overall bit rate : 2 401 Kbps
Writing application : VirtualDubMod 1.5.10.2 (build 2542/release)
Writing library : VirtualDubMod build 2542/release

Video
ID : 0
Format : MPEG-4 Visual
Format profile : Advanced Simple@L5
Format settings, BVOP : 2
Format settings, QPel : No
Format settings, GMC : No warppoints
Format settings, Matrix : Default (H.263)
Muxing mode : Packed bitstream
Codec ID : XVID
Codec ID/Hint : XviD
Duration : 1h 27mn
Bit rate : 2 003 Kbps
Width : 720 pixels
Height : 544 pixels
Display aspect ratio : 4:3
Frame rate : 25.000 fps
Color space : YUV
Chroma subsampling : 4:2:0
Bit depth : 8 bits
Scan type : Progressive
Compression mode : Lossy
Bits/(Pixel*Frame) : 0.205
Stream size : 1.22 GiB (83%)
Writing library : XviD 65

Audio #1
ID : 1
Format : AC-3
Format/Info : Audio Coding 3
Mode extension : CM (complete main)
Format settings, Endianness : Big
Codec ID : 2000
Duration : 1h 27mn
Bit rate mode : Constant
Bit rate : 192 Kbps
Channel(s) : 2 channels
Channel positions : Front: L R
Sampling rate : 48.0 KHz
Frame rate : 31.250 fps (1536 spf)
Compression mode : Lossy
Stream size : 120 MiB (8%)
Alignment : Split accross interleaves
Interleave, duration : 40 ms (1.00 video frame)
Interleave, preload duration : 500 ms

Audio #2
ID : 2
Format : AC-3
Format/Info : Audio Coding 3
Mode extension : CM (complete main)
Format settings, Endianness : Big
Codec ID : 2000
Duration : 1h 27mn
Bit rate mode : Constant
Bit rate : 192 Kbps
Channel(s) : 2 channels
Channel positions : Front: L R
Sampling rate : 48.0 KHz
Frame rate : 31.250 fps (1536 spf)
Compression mode : Lossy
Stream size : 120 MiB (8%)
Alignment : Split accross interleaves
Interleave, duration : 40 ms (1.00 video frame)
Interleave, preload duration : 500 ms



Другое участие: Slava48 – предоставление исходной записи




--------------------
Безоблачная старость – это миф,
Поскольку наша память – ширь морская,
И к ночи начинается прилив,
Со дна обломки прошлого таская.
Игорь Губерман

Скрыть подпись


bondsun
№2 Отправлено: 9.06.2016 - 14:36


кучерявый

Группа: Потребители
Регистрация: 17.08.2009
Сообщений: 4117
Обитает:
На форуме с:
cегодня в 18:28





Благодарствую, архивы в порядке.


--------------------
Пусть рушится мир весь вокруг, пополам,
Пусть часто фортуна не прёт.
Не кофе нас должен бодрить по утрам,
А тот, кто его подаёт.

happy.gif

Скрыть подпись
Top
bornik
№3 Отправлено: 9.06.2016 - 15:39


Воспоминания - это богатства старости.

Группа: Модераторы
Регистрация: 18.08.2008
Сообщений: 893
Обитает:
Последний раз был:
cегодня в 18:12




Цитата
( bondsun @ 9.06.2016 - 14:36)
Благодарствую, архивы в порядке.

И Вам, bondsun, спасибо за добрую весть. happy_fly.gif


--------------------
Безоблачная старость – это миф,
Поскольку наша память – ширь морская,
И к ночи начинается прилив,
Со дна обломки прошлого таская.
Игорь Губерман

Скрыть подпись
Top
grival406
№4 Отправлено: 23.06.2016 - 08:45


Старожил

Группа: Потребители
Регистрация: 3.03.2016
Сообщений: 899
Обитает:
Последний раз был:
cегодня в 18:06




Большое спасибо!!!


--------------------
Я знаю только одного тирана, и это тихий голос совести.
Махатма Ганди

Скрыть подпись
Top
bornik
№5 Отправлено: 23.06.2016 - 09:22


Воспоминания - это богатства старости.

Группа: Модераторы
Регистрация: 18.08.2008
Сообщений: 893
Обитает:
Последний раз был:
cегодня в 18:12




Цитата
( grival406 @ 23.06.2016 - 08:45)
Большое спасибо!!!

Пожалуйста, grival406. Всё для Вас! DD.gif


--------------------
Безоблачная старость – это миф,
Поскольку наша память – ширь морская,
И к ночи начинается прилив,
Со дна обломки прошлого таская.
Игорь Губерман

Скрыть подпись
Top
bornik
№6 Отправлено: 20.07.2016 - 18:21


Воспоминания - это богатства старости.

Группа: Модераторы
Регистрация: 18.08.2008
Сообщений: 893
Обитает:
Последний раз был:
cегодня в 18:12




Всем спасибо.
Очередь закрыта. Если есть желающие - пишите в ПМ. wink2.gif


--------------------
Безоблачная старость – это миф,
Поскольку наша память – ширь морская,
И к ночи начинается прилив,
Со дна обломки прошлого таская.
Игорь Губерман

Скрыть подпись
Top
1 человек просматривает эту тему (1 гость)
« Предыдущая тема | Отечественное кино | Следующая тема »


 



[Script Execution time: 0,0714]   [23 queries used]   [GZIP enabled]