Заходят многие - остаются лучшие!
Здравствуйте Гость ( Вход | Регистрация ) Выслать повторно письмо для активации
Вход
Ваше имя Пароль Забыли пароль?
Запомнить Вас?
Войти скрытым?



 Правила раздела Новые сообщения раздела  


 

 Мужчины / Տղամարդիկ (1972), Старое советское кино
bornik
  №1 Отправлено: 10.06.2016 - 08:51


Воспоминания - это богатства старости.

Группа: Модераторы
Регистрация: 18.08.2008
Сообщений: 912
Обитает:
Последний раз был:
cегодня в 03:12




Мужчины / Տղամարդիկ



Предыдущая раздача 17.02.2007 г.
Предыдущая раздача 28.06.2008 г.

«Мужчины» - художественный фильм режиссёра Эдмонда Кеосаяна, снятый на киностудии Арменфильм в 1972 году.

Год выпуска: 1972
Жанр: Комедия
Выпущено: СССР, Арменфильм
Премьера (СССР): 17 сентября 1973 года (Москва)

Режиссёр: Эдмонд Кеосаян

В ролях:
Армен Джигарханян … Казарян
Азат Шеренц … Вазген
Фрунзик Мкртчян … Сурен
Авет Геворкян … Арам
Армен Айвазян … Сако
Алла Туманян … Каринэ
Валентин Подпомогов … многодетный отец
Сергей Потикян … Саакян, старшина милиции
Рафаэль Котанджян … Левон
Каринэ Ханданян … Ануш
Артур Саакян … Самвел
Лаура Геворкян … жена Газаряна
Елена Оганесян … мама Карине
Верджалуйс Мириджанян … мама Арама
Тагуш … пожилая жительница села
Генрих Зарьян … эпизод
А. Авакян … эпизод
Левон Батикян … Ромео, брат Сурена
Иветта Бабурян … эпизод
Г. Восканян … эпизод
Ерванд Кочар … эпизод
Жанна Амирджанян … эпизод
Донара Мкртчян … Медея, жена Ромео
Альберт Мкртчян (II) … Джеймс, брат Ануш
Татул Дилакян … директор детского сада
Ася Суджян … эпизод

ОЗВУЧИВАНИЕ:
Рассказчик / русский, озвучка - Зиновий Гердт
Рассказчик / армянский, озвучка - Эдгар Элбакян

Сценаристы: Эдмонд Кеосаян, Александр Червинский
Оператор: Николай Васильков
Композитор: Роберт Амирханян
Художник: Рафаэль Бабаян



Описание: Четверо приятелей Вазген, Сако, Сурен и Арам живут в Ереване и действуют таксистами. И вот когда-то, Арам, самый застенчивый и скромный из всей фирмы, нежданно-негаданно безвыходно влюбляется в даму по фамилии Карине. Что ж! Настоящие представители сильного пола обязаны посодействовать приятелю. Троица пускает в ход всю имеющуюся находчивость и изобретательность, чтобы заставить красавицу обратить внимание на Арама.


• в фильме "Мужчины" одном эпизоде снялся известный армянский скульптор Ерванд Кочар.
• в фильме "Мужчины" одном эпизоде снялся известный армянский художник Валентин Подпомогов (смотреть видео с 23:55 ).
• в одном из последних кадров фильма в такси Арама на переднем сиденье в качестве пассажира промелькнул сам Эдмонд Гарегинович Кеосаян и Владимир Высоцкий (смотреть видео с 1:05:37).
• по инициативе Тиграна Кеосаяна в Ереване в 2007 году открылся памятник героям фильма "Мужчины" (автор Давид Минасян).
То, что творилось на церемонии открытия памятника, трудно описать. Это памятник не только героям фильма и его режиссеру. Это памятник любви к Еревану и память о тех замечательных годах.


Моя любимая картина — его фильм «Мужчины». Это добрая смешная армянская история о любви, до сих пор не утратившая актуальности. Закадровый голос Зиновия Гердта, который выступает рассказчиком, придает фильму особую атмосферу. В одной из ролей дедушка снял жену, то есть мою бабушку. Приглашенная актриса не смогла приехать из-за болезни, и Эдмонд предложил Лауре сыграть в эпизоде. Бабушка, актриса по образованию и красивейшая женщина, снималась редко. Выйдя замуж, она посвятила себя семье. Так вот, в тот момент Лаура лежала дома с температурой и была не в восторге от идеи мужа, но подвести его не могла. И конечно, Армен Джигарханян и Фрунзик Мкртчян — любимые актеры деда — блестяще сыграли. Кстати, мало кто знает, что за Армена Борисовича народные армянские песни поет именно дедушка. При том что армянский он практически не знал, потому что вырос в Сибири.

http://www.tele.ru/stars/interview/laura-keosayan-ded-ne-khotel-snimat-tretyu-chast-neulovimykh-mstiteley/#ad-image-7










Исходником послужил релиз DVD5 от oleg-k, взятый с Рутрекера, за что ему БОЛЬШОЕ СПАСИБО!



Архивы созданы RAR-архиватором с добавлением 3% на восстановление и снабжены sfv-проверочником.
Просьба к первому скачавшему отписаться о сохранности архивов на источнике раздачи.

Раздача рассчитана на месяц.

ПРИЯТНОГО ВСЕМ ПРОСМОТРА !!!



General
Complete name : C:\Cinema\Мужчины (1972) DVDRip.avi
Format : AVI
Format/Info : Audio Video Interleave
File size : 1.12 GiB
Duration : 1h 6mn
Overall bit rate : 2 401 Kbps
Writing application : VirtualDubMod 1.5.10.2 (build 2542/release)
Writing library : VirtualDubMod build 2542/release

Video
ID : 0
Format : MPEG-4 Visual
Format profile : Advanced Simple@L5
Format settings, BVOP : 2
Format settings, QPel : No
Format settings, GMC : No warppoints
Format settings, Matrix : Default (H.263)
Muxing mode : Packed bitstream
Codec ID : XVID
Codec ID/Hint : XviD
Duration : 1h 6mn
Bit rate : 2 003 Kbps
Width : 720 pixels
Height : 544 pixels
Display aspect ratio : 4:3
Frame rate : 25.000 fps
Color space : YUV
Chroma subsampling : 4:2:0
Bit depth : 8 bits
Scan type : Progressive
Compression mode : Lossy
Bits/(Pixel*Frame) : 0.205
Stream size : 957 MiB (83%)
Writing library : XviD 65

Audio #1
ID : 1
Format : AC-3
Format/Info : Audio Coding 3
Mode extension : CM (complete main)
Format settings, Endianness : Big
Codec ID : 2000
Duration : 1h 6mn
Bit rate mode : Constant
Bit rate : 192 Kbps
Channel(s) : 2 channels
Channel positions : Front: L R
Sampling rate : 48.0 KHz
Frame rate : 31.250 fps (1536 spf)
Compression mode : Lossy
Stream size : 91.7 MiB (8%)
Alignment : Split accross interleaves
Interleave, duration : 40 ms (1.00 video frame)
Interleave, preload duration : 500 ms

Audio #2
ID : 2
Format : AC-3
Format/Info : Audio Coding 3
Mode extension : CM (complete main)
Format settings, Endianness : Big
Codec ID : 2000
Duration : 1h 6mn
Bit rate mode : Constant
Bit rate : 192 Kbps
Channel(s) : 2 channels
Channel positions : Front: L R
Sampling rate : 48.0 KHz
Frame rate : 31.250 fps (1536 spf)
Compression mode : Lossy
Stream size : 91.7 MiB (8%)
Alignment : Split accross interleaves
Interleave, duration : 40 ms (1.00 video frame)
Interleave, preload duration : 500 ms



Другое участие: oleg-k – предоставление исходной записи




--------------------
Безоблачная старость – это миф,
Поскольку наша память – ширь морская,
И к ночи начинается прилив,
Со дна обломки прошлого таская.
Игорь Губерман

Скрыть подпись


bondsun
№2 Отправлено: 10.06.2016 - 11:49


кучерявый

Группа: Потребители
Регистрация: 17.08.2009
Сообщений: 4146
Обитает:
На форуме с:
cегодня в 08:46





Благодарствую, архивы в порядке.


--------------------
Пусть рушится мир весь вокруг, пополам,
Пусть часто фортуна не прёт.
Не кофе нас должен бодрить по утрам,
А тот, кто его подаёт.

happy.gif

Скрыть подпись
Top
bornik
№3 Отправлено: 10.06.2016 - 12:14


Воспоминания - это богатства старости.

Группа: Модераторы
Регистрация: 18.08.2008
Сообщений: 912
Обитает:
Последний раз был:
cегодня в 03:12




Цитата
( bondsun @ 10.06.2016 - 11:49)
Благодарствую, архивы в порядке.

И Вам, bondsun, спасибо за добрую весть. happy_fly.gif


--------------------
Безоблачная старость – это миф,
Поскольку наша память – ширь морская,
И к ночи начинается прилив,
Со дна обломки прошлого таская.
Игорь Губерман

Скрыть подпись
Top
grival406
№4 Отправлено: 17.07.2016 - 19:24


Старожил

Группа: Потребители
Регистрация: 3.03.2016
Сообщений: 923
Обитает:
Последний раз был:
вчера в 09:54




Огромное спасибо за фильм!


--------------------
Я знаю только одного тирана, и это тихий голос совести.
Махатма Ганди

Скрыть подпись
Top
bornik
№5 Отправлено: 20.07.2016 - 18:24


Воспоминания - это богатства старости.

Группа: Модераторы
Регистрация: 18.08.2008
Сообщений: 912
Обитает:
Последний раз был:
cегодня в 03:12




Всем спасибо.
Очередь закрыта. Если есть желающие - пишите в ПМ. wink2.gif


--------------------
Безоблачная старость – это миф,
Поскольку наша память – ширь морская,
И к ночи начинается прилив,
Со дна обломки прошлого таская.
Игорь Губерман

Скрыть подпись
Top
1 человек просматривает эту тему (1 гость)
« Предыдущая тема | Отечественное кино | Следующая тема »


 



[Script Execution time: 0,0693]   [23 queries used]   [GZIP enabled]