Заходят многие - остаются лучшие!
Здравствуйте Гость ( Вход | Регистрация ) Выслать повторно письмо для активации
Вход
Ваше имя Пароль Забыли пароль?
Запомнить Вас?
Войти скрытым?



 Правила раздела Новые сообщения раздела  


 

 Джамбул / Dzhambul (1952) [Полная цветная версия], Драма, историко-биографический;Реж.-Е.Дзиган;Роли-Ш.Айманов,Г.Хованов
SanSan48
  №1 Отправлено: 12.06.2016 - 20:01


"Спартак" - ЧЕМПИОН!!!

Группа: Пользователи
Регистрация: 28.12.2009
Сообщений: 1757
Обитает:
Последний раз был:
cегодня в 16:33




Джамбул / Dzhambul (1952) [Полная цветная версия]



Предыдущие раздачи:
01.01.2016 (DVDrip) (чёрно-белая восстановленная версия)
20.03.2011 (DVDrip) (чёрно-белая восстановленная версия)

Жанр: Драма, историко-биографический
Выпущено: СССР, Алма-Атинская киностудия
Год выпуска: 1952
Премьера (СССР): 25 мая 1953 (Москва)
Премьера (мир): 12 марта 1954 (Финляндия)
Сценаристы: Николай Погодин (Стукалов), Абдильда Тажибаев
Операторы: Николай Большаков, Игорь Гелейн
Композитор: Николай Крюков, Мукан Тулебаев
Художники: Владимир Егоров, Евгений Еней, Исаак Каплан
Монтажёр: Е.Абдиркина

Режиссёр: Ефим Дзиган

В ролях:
Шакен Айманов … Джамбул
Курманбек Жандарбеков … Кадырбай
Г.Курмангалиев … Шаймухамед
Герман Хованов … Василий Власов
Капан Бадыров … Боранбаев
Х.Абугалиева … Алма
Кененбай Кожабеков … Надир
Константин Адашевский … губернатор
Эраст Гарин … солдат, эпизод
А.Джалумбетов … эпизод
А.Лукинов … эпизод
Нина Никитина … учительница
Жагда Огузбаев … эпизод
Василий Меркурьев … врач, эпизод (озвучивал Юрий Толубеев)

Описание: О жизни и творчестве великого поэта-акына казахского народа Джамбула Джабаева.
Ученик и сын акына Саюмбая. Выступал с устными импровизациями. Пел, аккомпанируя на домбре, пользуясь обычно напевным речитативом в так называемом стиле толгау…

Дополнительная информация: Релиз:

Автор рипа: pmv

Большое спасибо за исходник в формате DVB - AND01AND
(Запись потока *.ts с наземного цифрового телеканала "Беларусь 3")

* В данной раздаче представлена цветная, полная версия на 11 минут продолжительнее, чем в предыдущих раздачах, длительностью 01:19:49.
* В раздачах на ФЕНИКСе представлен фильм, восстановленый на киностудии «Казахфильм» в 1968 году, в чёрно-белом изображении.


IMDb = 6,7/10 (11) - http://www.imdb.com/title/tt0044576/
Кинопоиск = - (22) - http://www.kinopoisk.ru/film/44383/

ВНИМАНИЕ!!! РИП ФОРМАТА mkv (кодек H.264) ВОСПРОИЗВОДИТСЯ НЕ НА ВСЕХ БЫТОВЫХ ВИДЕОПЛЕЕРАХ!!!

Параметры файла:
Название: Джамбул (1952).mkv
Качество видео: SATRip-AVC
Формат видео: MKV
Размер: 1,39 ГБ (1 495 154 892 bytes)
Продолжительность: 01:30:51
Видео: AVC (H264), 720@768x576 (4:3), 25 fps, 2000 Kbps, 0.193 Bits/Pixel
Аудио: AC3, 48 KHz, stereo (2 ch), 192 Kbps



General
Unique ID : 210143762372344461989388233365534191380 (0x9E183769C919C7BD97A74259EE12AF14)
Complete name : D:\torrents\Джамбул (1952).mkv
Format : Matroska
Format version : Version 4 / Version 2
File size : 1.39 GiB
Duration : 1h 30mn
Overall bit rate : 2 194 Kbps
Encoded date : UTC 2016-06-10 16:29:24
Writing application : mkvmerge v9.2.0 ('Photograph') 64bit
Writing library : libebml v1.3.3 + libmatroska v1.4.4
DURATION : 01:30:51.296000000
NUMBER_OF_FRAMES : 170353
NUMBER_OF_BYTES : 130831104
_STATISTICS_WRITING_APP : mkvmerge v9.2.0 ('Photograph') 64bit
_STATISTICS_WRITING_DATE_UTC : 2016-06-10 16:29:24
_STATISTICS_TAGS : BPS DURATION NUMBER_OF_FRAMES NUMBER_OF_BYTES

Video
ID : 1
Format : AVC
Format/Info : Advanced Video Codec
Format profile : High@L4.1
Format settings, CABAC : Yes
Format settings, ReFrames : 16 frames
Codec ID : V_MPEG4/ISO/AVC
Duration : 1h 30mn
Bit rate : 2 000 Kbps
Width : 720 pixels
Height : 576 pixels
Display aspect ratio : 4:3
Original display aspect ratio : 5:4
Frame rate mode : Constant
Frame rate : 25.000 fps
Standard : PAL
Color space : YUV
Chroma subsampling : 4:2:0
Bit depth : 8 bits
Scan type : Progressive
Bits/(Pixel*Frame) : 0.193
Stream size : 1.24 GiB (89%)
Writing library : x264 core 146 r2538 121396c
Encoding settings : cabac=1 / ref=16 / deblock=1:0:0 / analyse=0x3:0x133 / me=umh / subme=10 / psy=1 / psy_rd=1.00:0.00 / mixed_ref=1 / me_range=24 / chroma_me=1 / trellis=2 / 8x8dct=1 / cqm=0 / deadzone=21,11 / fast_pskip=1 / chroma_qp_offset=-2 / threads=36 / lookahead_threads=4 / sliced_threads=0 / nr=0 / decimate=1 / interlaced=0 / bluray_compat=0 / constrained_intra=0 / bframes=8 / b_pyramid=2 / b_adapt=2 / b_bias=0 / direct=3 / weightb=1 / open_gop=0 / weightp=2 / keyint=250 / keyint_min=25 / scenecut=40 / intra_refresh=0 / rc_lookahead=60 / rc=2pass / mbtree=1 / bitrate=2000 / ratetol=1.0 / qcomp=0.60 / qpmin=0 / qpmax=69 / qpstep=4 / cplxblur=20.0 / qblur=0.5 / ip_ratio=1.40 / aq=1:1.00
Language : Russian
Default : Yes
Forced : No

Audio
ID : 2
Format : AC-3
Format/Info : Audio Coding 3
Mode extension : CM (complete main)
Format settings, Endianness : Big
Codec ID : A_AC3
Duration : 1h 30mn
Bit rate mode : Constant
Bit rate : 192 Kbps
Channel(s) : 2 channels
Channel positions : Front: L R
Sampling rate : 48.0 KHz
Bit depth : 16 bits
Compression mode : Lossy
Stream size : 125 MiB (9%)
Language : Russian
Default : Yes
Forced : No








AND01AND, DVB, mkv, 720х576, 1.54 Gb < > CaCa48, SATRip, mkv, 768х576, 1.39 Gb
http://screenshotcomparison.com/comparison/175513
http://screenshotcomparison.com/comparison/175514


МОИ РАЗДАЧИ НА ФЕНИКСе: ЗДЕСЬ




Это сообщение отредактировал SanSan48 - 14.06.2016 - 19:30


--------------------
"Спартак" - ЧЕМПИОН!!!

Скрыть подпись


bondsun
№2 Отправлено: 12.06.2016 - 22:10


кучерявый

Группа: Потребители
Регистрация: 17.08.2009
Сообщений: 4117
Обитает:
На форуме с:
cегодня в 18:28





Благодарствую, архивы в порядке.


--------------------
Пусть рушится мир весь вокруг, пополам,
Пусть часто фортуна не прёт.
Не кофе нас должен бодрить по утрам,
А тот, кто его подаёт.

happy.gif

Скрыть подпись
Top
SanSan48
№3 Отправлено: 13.06.2016 - 07:59


"Спартак" - ЧЕМПИОН!!!

Группа: Пользователи
Регистрация: 28.12.2009
Сообщений: 1757
Обитает:
Последний раз был:
cегодня в 16:33




Цитата
( bondsun @ 12.06.2016 - 22:10)
Благодарствую, архивы в порядке.

bondsun, Спасибо за сообщение!

Приятного просмотра!


--------------------
"Спартак" - ЧЕМПИОН!!!

Скрыть подпись
Top
1 человек просматривает эту тему (1 гость)
« Предыдущая тема | Отечественное кино | Следующая тема »


 



[Script Execution time: 0,0425]   [24 queries used]   [GZIP enabled]