Заходят многие - остаются лучшие!
Здравствуйте Гость ( Вход | Регистрация ) Выслать повторно письмо для активации
Вход
Ваше имя Пароль Забыли пароль?
Запомнить Вас?
Войти скрытым?



 Правила раздела Новые сообщения раздела  


 

 Любовь на сене (2009) DVDRip, Российское кино
bornik
  №1 Отправлено: 14.05.2017 - 06:32


Воспоминания - это богатства старости.

Группа: Модераторы
Регистрация: 18.08.2008
Сообщений: 893
Обитает:
Последний раз был:
cегодня в 18:12




Любовь на сене (2009)



Последний фильм с участием Владислава Галкина.

Предыдущая раздача 26.03.2010 г.

«Любовь на сене» - российская мелодрама 2009 года.

Год выпуска: 2009
Жанр: Мелодрама
Выпущено: Россия, ПРО100 Фильм, Мосфильм
Продолжительность: 01:36:57
Премьера: 25 марта 2010 года (Россия, РТР)

Режиссёры: Валерий Чиков, Сайдо Курбанов

В ролях:

Владислав Галкин … Николай Евлашкин
Елена Лядова … Надя Лемешева
Сергей Юшкевич … Фёдор
Елена Бирюкова … Шура
Никита Зверев … Слава Елохов
Никита Сологалов … Ромка
Максим Емельянов … Петя
Владимир Горюшин … Тимофей Селиванов
Александр Пятков … Гурий
Олег Шабко … Ахмед
Полина Максимова … Настя
Евгений Сологалов … Санька Большаков
Анна Марлиони … лейтенант милиции
Иван Косичкин … капитан
Сергей Заботин … мужик
Анжелика Королёва … медсестра
Борис Пронечкин … старик в больнице
Алексей Меторин … амбал Тоха
Агафья Георгова … бабушка с тележкой

КАСКАДЕРЫ

Олег Данилевский … постановщик трюков
Николай Губенков … постановщик трюков

Сценарист: Валерий Чиков
Оператор: Николай Ивасив
Композитор: Игорь Щербаков
Художник: Сергей Жакулин
Продюсеры: Анастасия Шипулина, Родион Павлючик

Описание: Эта история любви достойна романтичного Парижа с его рекой Сеной. Но разворачивается она в российской глубинке, среди березовых рощ и бескрайних полей свежескошенного сена. Только Коля Евлашкин освобождается из мест не столь отдаленных и — на тебе, снова попадает в милицию: он ведь просто помогает поднести сумку гражданке Лемешевой, а его обвиняют в воровстве. Надя и сама видит, что на вора этот человек совсем не похож. Она забирает свое заявление из милиции и даже одалживает новому знакомому денег. Коля приезжает в деревню, где живет Надя.
Как и положено честному человеку, он готов не только вернуть долг, но и жениться. Но на руку и доброе сердце красавицы Нади претендует целая компания: это и бывший одноклассник, а ныне скромный олигарх, и даже внезапно объявившийся муж. Весь этот многоугольник и составляет жизнь маленькой деревеньки со смешным названием Бухалово. За видимой легкостью отношений стоит трогательная история любви двух людей — Коля и Надя уже давно не ждут чудес. Смогут ли они поверить друг другу?









General
Complete name : C:\Cinema\Любовь на сене (2009) DVDRip.avi
Format : AVI
Format/Info : Audio Video Interleave
File size : 1.49 GiB
Duration : 1h 36mn
Overall bit rate : 2 198 Kbps
Writing application : VirtualDubMod 1.5.10.2 (build 2540/release)
Writing library : VirtualDubMod build 2540/release

Video
ID : 0
Format : MPEG-4 Visual
Format profile : Advanced Simple@L5
Format settings, BVOP : 2
Format settings, QPel : No
Format settings, GMC : No warppoints
Format settings, Matrix : Default (H.263)
Muxing mode : Packed bitstream
Codec ID : XVID
Codec ID/Hint : XviD
Duration : 1h 36mn
Bit rate : 1 996 Kbps
Width : 720 pixels
Height : 400 pixels
Display aspect ratio : 16:9
Frame rate : 25.000 fps
Color space : YUV
Chroma subsampling : 4:2:0
Bit depth : 8 bits
Scan type : Progressive
Compression mode : Lossy
Bits/(Pixel*Frame) : 0.277
Stream size : 1.35 GiB (91%)
Writing library : XviD 65

Audio
ID : 1
Format : AC-3
Format/Info : Audio Coding 3
Mode extension : CM (complete main)
Codec ID : 2000
Duration : 1h 36mn
Bit rate mode : Constant
Bit rate : 192 Kbps
Channel(s) : 2 channels
Channel positions : Front: L R
Sampling rate : 48.0 KHz
Bit depth : 16 bits
Compression mode : Lossy
Stream size : 133 MiB (9%)
Alignment : Split accross interleaves
Interleave, duration : 40 ms (1.00 video frame)
Interleave, preload duration : 500 ms


=================================

Исходником послужил релиз DVD5 от Мосеньки, взятый с Рутрекера, за что ей БОЛЬШОЕ СПАСИБО!



Архивы созданы RAR-архиватором с добавлением 3% на восстановление и снабжены sfv-проверочником.
Просьба к первому скачавшему отписаться о сохранности архивов на источнике раздачи.

Раздача рассчитана на месяц.

ПРИЯТНОГО ВСЕМ ПРОСМОТРА !!!



Другое участие: Мосенька – предоставление исходной записи




--------------------
Безоблачная старость – это миф,
Поскольку наша память – ширь морская,
И к ночи начинается прилив,
Со дна обломки прошлого таская.
Игорь Губерман

Скрыть подпись


vjub58
№2 Отправлено: 14.05.2017 - 11:45


Практикующий эсквайр

Группа: Аксакалы
Регистрация: 6.12.2005
Сообщений: 4523
Обитает:
Последний раз был:
cегодня в 16:22




Спасибо, все ОК. pozdrav_buket.gif
Top
bornik
№3 Отправлено: 14.05.2017 - 13:56


Воспоминания - это богатства старости.

Группа: Модераторы
Регистрация: 18.08.2008
Сообщений: 893
Обитает:
Последний раз был:
cегодня в 18:12




Цитата
( vjub58 @ 14.05.2017 - 11:45)
Спасибо, все ОК. pozdrav_buket.gif

И Вам, vjub58, спасибо за добрую весть. wink2.gif


--------------------
Безоблачная старость – это миф,
Поскольку наша память – ширь морская,
И к ночи начинается прилив,
Со дна обломки прошлого таская.
Игорь Губерман

Скрыть подпись
Top
grival406
№4 Отправлено: 14.05.2017 - 18:00


Старожил

Группа: Потребители
Регистрация: 3.03.2016
Сообщений: 899
Обитает:
Последний раз был:
cегодня в 18:06




А Вам, уважаемый bornik, огромное спасибо за фильм
с замечательным, и так рано ушедшим Артистом
Владиславом Галкиным...


--------------------
Я знаю только одного тирана, и это тихий голос совести.
Махатма Ганди

Скрыть подпись
Top
1 человек просматривает эту тему (1 гость)
« Предыдущая тема | Отечественное кино | Следующая тема »


 



[Script Execution time: 0,0402]   [23 queries used]   [GZIP enabled]