Заходят многие - остаются лучшие!
Здравствуйте Гость ( Вход | Регистрация ) Выслать повторно письмо для активации
Вход
Ваше имя Пароль Забыли пароль?
Запомнить Вас?
Войти скрытым?



Новые сообщения раздела  

 

 Библейский сюжет. Нодар Думбадзе. Закон вечности (2020), Авторская программа Дмитрия Менделеева
Alevtina
  №1 Отправлено: 16.09.2020 - 18:56


Время камни собирать...

Группа: Аксакалы
Регистрация: 12.02.2009
Сообщений: 5806
Обитает:
Последний раз был:
вчера в 18:25




Библейский сюжет. Нодар Думбадзе. "Закон вечности"



В рамках проекта -

Год выпуска: 2020

Страна: Россия

Режиссер: Ольга Жукова

Студия: ООО Студия "Неофит"

Автор и ведущий: Дмитрий Менделеев


Обращение великих художников к Библии никогда не заканчивалось только иллюстрацией того или иного сюжета Вечной Книги. Оно всегда предполагало личное осмысление. Художник выбирал библейскую историю, чтобы рассказать о себе, о своем времени, чтобы глубже постичь смысл происходящего.
Язык образов Святого Писания был универсален и понятен для всех. Но теперь для нас этот язык наполовину забыт. Мы уже не можем так ясно, с листа, читать всё, что говорили в своих произведениях художники, поэты, композиторы и писатели прошлого. Мы более опираемся на чувственное восприятие, которое все же является только частью замысла, его внешней стороной. В программе "Библейский сюжет" делается попытка соединить "прекрасного разрозненные части", по-другому взглянуть на всемирно известные произведения искусства, рассказать о судьбе их создателей.


Описание:

Свой последний роман, "Закон Вечности", Нодар Владимирович написал под впечатлением от первого инфаркта. "Человек должен хоть раз в жизни перенести тяжелую болезнь, это позволит ему трезво, спокойно проанализировать и переоценить весь пройденный путь. Два месяца в вашей больнице были для меня временем поразительных открытий! - Что ж вы такое открыли? - Закон Вечности! - Что!? - Закон вечности!"

Суть открытия своего лирического героя Думбадзе объяснял всю жизнь, начиная с самой первой книги, "Я, Бабушка, Илико и Иларион". Закон Вечности - это закон любви, закон взаимопомощи, бережного отношения людей друг к другу... После второго инфаркта он написал повесть "Кукарача" и в ней сформулировал эту, главную, мысль всего его писательского пути так: "Из всех сокровищ, дарованных Богом человеку, самое драгоценное - талант любить. И мне жаль человека, ушедшего из жизни без любви".



Media-info:


Format/Info : Audio Video Interleave
File size : 321 MiB
Duration : 26mn 4s
Overall bit rate : 1 722 Kbps

Video
ID : 0
Format : MPEG-4 Visual
Format profile : Advanced Simple@L5
Format settings, BVOP : Yes
Format settings, QPel : No
Format settings, GMC : No warppoints
Format settings, Matrix : Default (H.263)
Codec ID : XVID
Codec ID/Hint : XviD
Duration : 26mn 4s
Bit rate : 1 582 Kbps
Width : 720 pixels
Height : 400 pixels
Display aspect ratio : 16:9
Frame rate : 25.000 fps
Color space : YUV
Chroma subsampling : 4:2:0
Bit depth : 8 bits
Scan type : Progressive
Bits/(Pixel*Frame) : 0.220
Stream size : 295 MiB (92%)
Writing library : XviD 64

Audio
ID : 1
Format : MPEG Audio
Format version : Version 1
Format profile : Layer 3
Codec ID : 55
Codec ID/Hint : MP3
Duration : 26mn 4s
Bit rate mode : Constant
Bit rate : 128 Kbps
Channel(s) : 2 channels
Sampling rate : 44.1 KHz
Stream size : 23.9 MiB (7%)
Alignment : Split accross interleaves
Interleave, duration : 26 ms (0.65 video frame)




Cкриншоты:






Записались на автоматическое включение в очередь:
baziss, Snara, valbar, vyur, RussianGuy, Marrina, медикус, mosk7, Nadejdaenergia, ILIA, Masjanja, ajlinn, oldfanat, bondsun, mikhailk, medandrey, oster47, Tanjusha, andrusenko, rittaa, medush, rucula

Если вы хотите, чтобы вас автоматически ставили в очередь на следующие выпуски данного цикла, - сообщите об этом в теме последней раздачи.




Это сообщение отредактировал Alevtina - 16.09.2020 - 19:04


--------------------

Прохожие, купите Доброту!
Лишь за улыбку! Разве ж это много!
Исполните заветную мечту…
И хоть одну из Заповедей Бога!
Снимите маски «гордых» и «крутых»
Купите, хоть немножечко, Терпенья.
И ощутите сердцем, хоть на миг,
Всю прелесть и восторг благодаренья!
Сегодня, АКЦИЯ на Совесть и Любовь!
Притормозите «хаммер» свой, иль «буммер»!
Купите! И волнуйте свою кровь!
От этого ещё никто не умер!


Скрыть подпись


baziss
№2 Отправлено: 17.09.2020 - 03:55


Аксакал обыкновенный

Группа: Аксакалы
Регистрация: 4.12.2005
Сообщений: 2731
Обитает:
Последний раз был:
cегодня в 12:40




Архив в порядке. Спасибо большое! chveti.gif


--------------------

Скрыть подпись
Top
Alevtina
№3 Отправлено: 17.09.2020 - 07:12


Время камни собирать...

Группа: Аксакалы
Регистрация: 12.02.2009
Сообщений: 5806
Обитает:
Последний раз был:
вчера в 18:25




baziss, благодарю за сообщение! zdarov1.gif


--------------------

Прохожие, купите Доброту!
Лишь за улыбку! Разве ж это много!
Исполните заветную мечту…
И хоть одну из Заповедей Бога!
Снимите маски «гордых» и «крутых»
Купите, хоть немножечко, Терпенья.
И ощутите сердцем, хоть на миг,
Всю прелесть и восторг благодаренья!
Сегодня, АКЦИЯ на Совесть и Любовь!
Притормозите «хаммер» свой, иль «буммер»!
Купите! И волнуйте свою кровь!
От этого ещё никто не умер!


Скрыть подпись
Top
1 человек просматривает эту тему (1 гость)
« Предыдущая тема | Мир и люди искусства | Следующая тема »


 



[Script Execution time: 0,0332]   [22 queries used]   [GZIP enabled]