Здравствуйте Гость ( Вход | Регистрация ) Выслать повторно письмо для активации
Вход
Ваше имя Пароль Забыли пароль?
Запомнить Вас?
Войти скрытым?



Новые сообщения раздела  

 

 Mоя советская Молодость (2016) TVRip, Воспоминания молодости
bornik
  №1 Отправлено: 5.01.2017 - 03:53


Воспоминания - это богатства старости.

Группа: Модераторы
Регистрация: 18.08.2008
Сообщений: 800
Обитает:
Последний раз был:
cегодня в 12:02




Mоя советская Молодость (2016)



Предыдущая раздача "Моё cоветское Детство" (2014)
Предыдущая раздача "Моя cоветская Юность" (2015)

Год выпуска: 2016
Жанр: Документальный
Выпущено: Россия, Телекомпания - «5 КАНАЛ»
Продолжительность: 02:11:52

Режиссёр: Евгения Гончар
Сценарист: Алексей Васильев, Яна Радзиевская
Оператор: Виктор Гончар
Оригинальная музыка: Максим Алексеев

Ведущий: Михаил Боярский

Участники: Алла Пугачева, Гоша Куценко, Анна Ковальчук, Николай Басков, Никас Сафронов, Елена Яковлева, Денис Майданов, Владимир Шахрин, Дмитрий Харатьян, Вениамин Смехов и многие другие.

Описание: Звёздные гости расскажут, как уходили в армию, работали в студотрядах, покажут «дембельский альбом», вспомнят походы в видеосалоны, покупку первой машины и чудо-техники – видеомагнитофона. Главный Д'Артаньян Союза споёт песни обожаемых «Битлз», так, как пел их ещё в армии.













General
Complete name : C:\Cinema\Моё советское...\Mоя советская Молодость (2016)\MoSovMol.avi
Format : AVI
Format/Info : Audio Video Interleave
File size : 1.97 GiB
Duration : 2h 11mn
Overall bit rate : 2 141 Kbps
Writing application : VirtualDubMod 1.5.10.2 (build 2540/release)
Writing library : VirtualDub build 35491/release

Video
ID : 0
Format : MPEG-4 Visual
Format profile : Advanced Simple@L5
Format settings, BVOP : 2
Format settings, QPel : No
Format settings, GMC : No warppoints
Format settings, Matrix : Default (H.263)
Muxing mode : Packed bitstream
Codec ID : XVID
Codec ID/Hint : XviD
Duration : 2h 11mn
Bit rate : 2 003 Kbps
Width : 720 pixels
Height : 400 pixels
Display aspect ratio : 16:9
Frame rate : 25.000 fps
Color space : YUV
Chroma subsampling : 4:2:0
Bit depth : 8 bits
Scan type : Progressive
Compression mode : Lossy
Bits/(Pixel*Frame) : 0.278
Stream size : 1.85 GiB (94%)
Writing library : XviD 65

Audio
ID : 1
Format : MPEG Audio
Format version : Version 1
Format profile : Layer 3
Mode : Joint stereo
Mode extension : MS Stereo
Codec ID : 55
Codec ID/Hint : MP3
Duration : 2h 11mn
Bit rate mode : Constant
Bit rate : 128 Kbps
Channel(s) : 2 channels
Sampling rate : 48.0 KHz
Compression mode : Lossy
Stream size : 121 MiB (6%)
Alignment : Aligned on interleaves
Interleave, duration : 40 ms (1.00 video frame)
Interleave, preload duration : 504 ms
Writing library : LAME3.98r
Encoding settings : -m j -V 4 -q 3 -lowpass 17 -b 128


Последующая раздача "Мой советский Новый год" (2017)

=================================

Исходником послужил релиз WEB-DL, найденный на просторах инета!

Архивы созданы RAR-архиватором с добавлением 3% на восстановление и снабжены sfv-проверочником.
Просьба к первому скачавшему отписаться о сохранности архивов на источнике раздачи.

Раздача рассчитана на месяц.

ПРИЯТНОГО ВСЕМ ПРОСМОТРА !!!




--------------------
Безоблачная старость – это миф,
Поскольку наша память – ширь морская,
И к ночи начинается прилив,
Со дна обломки прошлого таская.
Игорь Губерман

Скрыть подпись


RussianGuy
№2 Отправлено: 5.01.2017 - 07:57


Посетитель

Группа: Потребители
Регистрация: 12.02.2007
Сообщений: 222
Обитает:
Последний раз был:
cегодня в 07:11




Архивы в порядке. Спасибо
Top
bornik
№3 Отправлено: 5.01.2017 - 10:27


Воспоминания - это богатства старости.

Группа: Модераторы
Регистрация: 18.08.2008
Сообщений: 800
Обитает:
Последний раз был:
cегодня в 12:02




Цитата
( RussianGuy @ 5.01.2017 - 07:57)
Архивы в порядке. Спасибо

И Вам, RussianGuy, спасибо за дробрую весть. happy_fly.gif


--------------------
Безоблачная старость – это миф,
Поскольку наша память – ширь морская,
И к ночи начинается прилив,
Со дна обломки прошлого таская.
Игорь Губерман

Скрыть подпись
Top
1 человек просматривает эту тему (1 гость)
« Предыдущая тема | Летопись времён и идей | Следующая тема »


 



[Script Execution time: 0,0629]   [22 queries used]   [GZIP enabled]