Заходят многие - остаются лучшие!
Здравствуйте Гость ( Вход | Регистрация ) Выслать повторно письмо для активации
Вход
Ваше имя Пароль Забыли пароль?
Запомнить Вас?
Войти скрытым?



Новые сообщения раздела  

 

 Свет в окне (1980), Старое советское кино, экранизация
медикус
  №1 Отправлено: 29.04.2016 - 16:39


Живёт здесь

Группа: Модераторы
Регистрация: 22.07.2008
Сообщений: 11516
Обитает:
Последний раз был:
вчера в 21:31




Свет в окне



Раздача на форуме
Предыдущая раздача 07.10.2006 г.
Предыдущая раздача 10.11.2015 г.

«Свет в окне» - фильм режиссёра Аян Шахмалиевой, поставленный в 1980 году по мотивам одноимённого очерка Татьяны Тэсс.

Жанр: Психологическая мелодрама
Выпущено: СССР, Ленфильм
Год выпуска: 1980
Премьера (СССР): 03 мая 1980 года (ТВ)

Режиссёр: Аян Шахмалиева

В ролях:
Юрий Соломин … Владимир Александрович Егоров
Маргарита Сергеечева … Рита
Тамара Дегтярёва … Ирина, медсестра
Людмила Иванова … Евдокия Осиповна, бабушка Риты
К. Вольский … Витя Сидоренко
Елена Соловей … Наташа
Олег Пальмов … Игорь
Валентина Ананьина … Ирина Петровна, тренер по плаванию
Эльвира Колотухина … эпизод
Алла Мещерякова … врач-педиатр
Вера Титова … няня в роддоме
Н. Батова … эпизод

Сценарист: Мария Зверева (Кожина)
Оператор: Константин Рыжов
Композитор: Борис Тищенко
Художник: Исаак Каплан

Описание: У девочки умирает мама и она остается с новорожденной сестренкой и отцом, оба безутешные в своем горе...
Со временем в доме появляется женщина, которая очень любит ее папу и, вероятно, сможет заменить умершую мать. Но девочка сама умело управляется с хозяйством, следит за сестренкой и не понимает, зачем в доме посторонняя женщина...


• Банеры с названием фильма, после рекламных вставок и анонсом следующих передач в раздаче присутствуют.








Исходником послужил релиз DVB от трус'а, взятый с Рутрекера, за что ему БОЛЬШОЕ СПАСИБО!



Архивы созданы RAR-архиватором с добавлением 3% на восстановление и снабжены sfv-проверочником.

ПРИЯТНОГО ВСЕМ ПРОСМОТРА !!!



General
Complete name : C:\Cinema\Свет в окне (1980) TVRip.avi
Format : AVI
Format/Info : Audio Video Interleave
File size : 1.26 GiB
Duration : 1h 14mn
Overall bit rate : 2 405 Kbps
Writing application : VirtualDubMod 1.5.10.2 (build 2542/release)
Writing library : VirtualDubMod build 2542/release

Video
ID : 0
Format : MPEG-4 Visual
Format profile : Advanced Simple@L5
Format settings, BVOP : 2
Format settings, QPel : No
Format settings, GMC : No warppoints
Format settings, Matrix : Default (H.263)
Muxing mode : Packed bitstream
Codec ID : XVID
Codec ID/Hint : XviD
Duration : 1h 14mn
Bit rate : 2 203 Kbps
Width : 720 pixels
Height : 544 pixels
Display aspect ratio : 4:3
Frame rate : 25.000 fps
Color space : YUV
Chroma subsampling : 4:2:0
Bit depth : 8 bits
Scan type : Progressive
Compression mode : Lossy
Bits/(Pixel*Frame) : 0.225
Stream size : 1.15 GiB (92%)
Writing library : XviD 65

Audio
ID : 1
Format : MPEG Audio
Format version : Version 1
Format profile : Layer 3
Mode : Joint stereo
Mode extension : MS Stereo
Codec ID : 55
Codec ID/Hint : MP3
Duration : 1h 14mn
Bit rate mode : Constant
Bit rate : 192 Kbps
Channel(s) : 2 channels
Sampling rate : 48.0 KHz
Compression mode : Lossy
Stream size : 103 MiB (8%)
Alignment : Aligned on interleaves
Interleave, duration : 40 ms (1.00 video frame)
Interleave, preload duration : 504 ms
Writing library : LAME3.98r
Encoding settings : -m j -V 4 -q 3 -lowpass 18.6 -b 192



Другое участие: трус – предоставление исходной записи


Параметры рипа:
Размер: 1,26 ГБ
Источник рипа: DVB-T
Продолжительность: 01:14:48
Субтитры: Отсутствуют
Параметры видео: 720x544 (1.32:1), 25 fps, XviD MPEG-4 ~2202 kbps avg, 0.23 bit/pixel
Параметры звука: 48 kHz, MPEG Layer 3, 2 ch, ~192.00 kbps avg
Данные на архив:
Сдал в архив: медикус
Для получения линка и пароля достаточно ответить в тему или нажать кнопку "Спасибо".


1 человек просматривает эту тему (1 гость)
« Предыдущая тема | Детские фильмы. Архив | Следующая тема »


 



[Script Execution time: 0,0412]   [22 queries used]   [GZIP enabled]