Заходят многие - остаются лучшие!
Здравствуйте Гость ( Вход | Регистрация ) Выслать повторно письмо для активации
Вход
Ваше имя Пароль Забыли пароль?
Запомнить Вас?
Войти скрытым?



 Правила раздела Новые сообщения раздела  


 

 Калейдоскоп 1966
wider2
  №1 Отправлено: 13.11.2019 - 20:32


Живёт здесь

Группа: Потребители
Регистрация: 17.10.2006
Сообщений: 1237
Обитает:
Последний раз был:
вчера в 19:46




Калейдоскоп / Kaleidoscope 1966


Жанр
Комедия Криминал

Страна
Великобритания

Премьера (мир)
22 сентября 1966

Режиссёр
Джек Смайт

В ролях
Уоррен Битти Сюзанна Йорк Клайв Ревилл Эрик Портер Мюррэй Мелвин Джордж Сьюэлл Стэнли Медоуз Джон Джанкин Ларри Тейлор Юта Джойс

Продюсеры
Эллиотт Кастнер Питер Медак Джерри Гершвин

Сценарий
Роберт Керрингтон Джейн-Ховард Керрингтон

IMDb: 6.0
Продолжительность: 1 час 43 мин.
Слоган
«From London to the Riviera, a hair-raising tale of gallant love and truly desperate adventure!»


Однажды вдруг обнаружил редкий фильм 1966 года про игру в карты
Он совсем забыт и его непросто найти в сети, но хоть он и на английском языке... мне понравилась сама задумка.
Фильм для любителей игры в карты, и в покер в частности.
Основная идея - как по "рубашке" определить масть карты.
Плюс к этому стиль игры и оформления в подобных клубах мало изменилось - все то же курение сигар, элитный вискарь, дорогая мебель, кожанные диваны и т.д.

Сам сценарий:
Один талантливый молодой человек решил попытать счастья в азартных играх. Разработал свою систему, как выигрывать в картах и понеслось... Его выигрыши привлекли внимание многих, в том числе и инспектора, который смог понять и разоблачить его систему. Но вместо посадки, он предложил поработать на "контору", чтобы добраться до Гарри Доминиона...
И началась Большая Игра





Это сообщение отредактировал wider2 - 17.11.2019 - 15:20


oldfanat
№2 Отправлено: 14.11.2019 - 03:13


Посетитель

Группа: Потребители
Регистрация: 29.10.2007
Сообщений: 133
Обитает:
Последний раз был:
позавчера в 04:31




Спасибо, воспроизводится нормально.
Top
baziss
№3 Отправлено: 14.11.2019 - 05:50


Аксакал обыкновенный

Группа: Аксакалы
Регистрация: 4.12.2005
Сообщений: 2685
Обитает:
Последний раз был:
cегодня в 06:21




Спасибо, но заявленный русский многоголосый почему-то не прослушивается devil.gif


--------------------

Скрыть подпись
Top
Huan
№4 Отправлено: 14.11.2019 - 06:01


Посетитель

Группа: Форумчане
Регистрация: 4.04.2016
Сообщений: 131
Обитает:
Последний раз был:
вчера в 19:09




Скачал. Дорожка одна. Не русская.

Цитата
Формат : AVI
Формат/Информация : Audio Video Interleave
Размер файла : 700 Мбайт
Продолжительность : 1 ч. 42 м.
Режим общего битрейта : Переменный
Общий поток : 952 Кбит/сек
Библиотека кодирования : VirtualDub build 32706/release

Видео
Идентификатор : 0
Формат : MPEG-4 Visual
Профиль формата : Advanced Simple@L5
Настройки формата : BVOP2
Параметр BVOP формата : 2
Параметр QPel формата : Нет
Параметр GMC формата : Без точки перехода
Параметр матрицы формата : Default (H.263)
Режим смешивания : Сжатый битовый поток
Идентификатор кодека : XVID
Идентификатор кодека/Подсказка : XviD
Продолжительность : 1 ч. 42 м.
Битрейт : 813 Кбит/сек
Ширина : 640 пикселей
Высота : 384 пикселя
Соотношение сторон : 5:3
Частота кадров : 23,976 (24000/1001) кадра/сек
Цветовое пространство : YUV
Субдискретизация насыщенности : 4:2:0
Битовая глубина : 8 бит
Тип развёртки : Прогрессивная
Метод сжатия : С потерями
Бит/(Пиксели*Кадры) : 0.138
Размер потока : 598 Мбайт (85%)
Библиотека кодирования : XviD 1.2.1 (UTC 2008-12-04)

Аудио
Идентификатор : 1
Формат : MPEG Audio
Версия формата : Version 1
Профиль формата : Layer 3
Идентификатор кодека : 55
Идентификатор кодека/Подсказка : MP3
Продолжительность : 1 ч. 42 м.
Вид битрейта : Переменный
Битрейт : 128 Кбит/сек
Каналы : 1 канал
Частота : 48,0 КГц
Частота кадров : 41,667 кадра/сек (1152 SPF)
Метод сжатия : С потерями
Размер потока : 92,6 Мбайт (13%)
Выравнивание : Соединение по промежуткам
Продолжительность промежутка : 24 мс. (0,58 видеокадр)
Время предзагрузки промежутка : 509 мс.
Библиотека кодирования : LAME3.90.
Настройки программы : -m m -V 4 -q 2 -lowpass 17.6 --abr 128


Это сообщение отредактировал Huan - 14.11.2019 - 06:02
Top
pushistiy
№5 Отправлено: 14.11.2019 - 17:02


Живёт здесь

Группа: Потребители
Регистрация: 8.12.2013
Сообщений: 1075
Последний раз был:
позавчера в 20:36




А скриншотев, пошто, нетю ? pain25.gif
Да и, вообще, фильм - только для англичан. wow.gif (русской речи нет и в помине)


Это сообщение отредактировал pushistiy - 14.11.2019 - 17:28
Top
gilbert00
  №6 Отправлено: 14.11.2019 - 17:27


Живёт здесь

Группа: Аксакалы
Регистрация: 1.06.2007
Сообщений: 1671
Обитает:
Последний раз был:
вчера в 18:25




Где русская дорожка?
Top
wider2
№7 Отправлено: 14.11.2019 - 17:31


Живёт здесь

Группа: Потребители
Регистрация: 17.10.2006
Сообщений: 1237
Обитает:
Последний раз был:
вчера в 19:46




Мои извинения насчет русской дорожки
Фильм этот весьма редкий и кажется вообще мало когда либо издавался и переводился
у меня есть еще только немецкая аудио дорожка, если она кому то вообще нужна


Это сообщение отредактировал wider2 - 14.11.2019 - 17:31
Top
gilbert00
№8 Отправлено: 14.11.2019 - 17:38


Живёт здесь

Группа: Аксакалы
Регистрация: 1.06.2007
Сообщений: 1671
Обитает:
Последний раз был:
вчера в 18:25




Цитата
( wider2 @ 14.11.2019 - 20:31)
Мои извинения насчет русской дорожки
Фильм этот весьма редкий и кажется вообще мало когда либо издавался и переводился
у меня есть еще только немецкая аудио дорожка, если она кому то вообще нужна

Для таких фильмов есть группа Без перевода
Top
Huan
№9 Отправлено: 15.11.2019 - 10:52


Посетитель

Группа: Форумчане
Регистрация: 4.04.2016
Сообщений: 131
Обитает:
Последний раз был:
вчера в 19:09




Незачётт.

Надо поискать Wasilisa.
Top
wider2
№10 Отправлено: 17.11.2019 - 15:22


Живёт здесь

Группа: Потребители
Регистрация: 17.10.2006
Сообщений: 1237
Обитает:
Последний раз был:
вчера в 19:46




Всем добрый день
Пользователь Leo2 попросил меня о немецком дубляже.
Клиент всегда прав, поэтому вот линк на копию с 2 аудиодорожками: немецкой и английской

german audio track + english one


Это сообщение отредактировал wider2 - 17.11.2019 - 15:23
Top
1 человек просматривает эту тему (1 гость)
« Предыдущая тема | Зарубежные фильмы | Следующая тема »


 



[Script Execution time: 0,0576]   [25 queries used]   [GZIP enabled]