Заходят многие - остаются лучшие!
Здравствуйте Гость ( Вход | Регистрация ) Выслать повторно письмо для активации
Вход
Ваше имя Пароль Забыли пароль?
Запомнить Вас?
Войти скрытым?



Новые сообщения раздела  

 

 Планета воробьёв / Animal Family HD. Sparrow Planet (2013), Animal Family HD
bornik
  №1 Отправлено: 3.04.2017 - 18:49


Воспоминания - это богатства старости.

Группа: Модераторы
Регистрация: 18.08.2008
Сообщений: 952
Обитает:
Последний раз был:
cегодня в 12:52




Планета воробьёв / Animal Family HD. Sparrow Planet (2013)



«Планета воробьёв» - фильм обстоятельно рассказывает об домовом воробье и его приспособляемости в городских условиях разных стран (Египет, США, Китай, Россия, Австрия и Франция).

Название: Планета воробьёв
Оригинальное название: Sparrow Planet
Год выпуска: 2009
Жанр: Документальный, природа, фауна, флора
Выпущено: Австрия, Österreichischer Rundfunk (ORF), ARTE, NDR Naturfilm, Studio Hamburg DocLights, bm: ukk, Kurt Mayer Film
Продолжительность: 00:50:39
Субтитры: Русские (мои)

Режиссёр: Курт Майер / Kurt Mayer, Юдит Доплер / Judith Doppler

Описание: Обычный воробей… На первый взгляд, его жизнь может показаться скучной. Но это первое впечатление обманчиво. Она наполнена приключениями! А сами воробьи – весьма неординарные создания.
Они поют так красиво, как канарейки и своим голосом могут даже подражать другим пернатым. Воробьи необычайно сообразительны. Их охотничьи навыки поражают воображение!
Этот документальный фильм о необыкновенных маленьких птичках, которые живут столетиями бок о бок с человеком.








General
Complete name : C:\DVD documental fimls\Планета воробьёв\Планета воробьёв (2013).avi
Format : AVI
Format/Info : Audio Video Interleave
File size : 798 MiB
Duration : 50mn 39s
Overall bit rate : 2 202 Kbps
Writing application : VirtualDubMod 1.5.10.2 (build 2540/release)
Writing library : VirtualDubMod build 2540/release

Video
ID : 0
Format : MPEG-4 Visual
Format profile : Advanced Simple@L5
Format settings, BVOP : 2
Format settings, QPel : No
Format settings, GMC : No warppoints
Format settings, Matrix : Default (H.263)
Muxing mode : Packed bitstream
Codec ID : XVID
Codec ID/Hint : XviD
Duration : 50mn 39s
Bit rate : 2 000 Kbps
Width : 720 pixels
Height : 400 pixels
Display aspect ratio : 16:9
Frame rate : 25.000 fps
Color space : YUV
Chroma subsampling : 4:2:0
Bit depth : 8 bits
Scan type : Progressive
Compression mode : Lossy
Bits/(Pixel*Frame) : 0.278
Stream size : 725 MiB (91%)
Writing library : XviD 65

Audio
ID : 1
Format : MPEG Audio
Format version : Version 1
Format profile : Layer 3
Mode : Joint stereo
Mode extension : MS Stereo
Codec ID : 55
Codec ID/Hint : MP3
Duration : 50mn 39s
Bit rate mode : Constant
Bit rate : 192 Kbps
Channel(s) : 2 channels
Sampling rate : 48.0 KHz
Compression mode : Lossy
Stream size : 69.6 MiB (9%)
Alignment : Aligned on interleaves
Interleave, duration : 40 ms (1.00 video frame)
Interleave, preload duration : 504 ms
Writing library : LAME3.98r
Encoding settings : -m j -V 4 -q 3 -lowpass 18.6 -b 192


=================================

Исходником послужил релиз HDTV, найденный на просторах инета!

Архивы созданы RAR-архиватором с добавлением 3% на восстановление и снабжены sfv-проверочником.
Просьба к первому скачавшему отписаться о сохранности архивов на источнике раздачи.

Раздача рассчитана на месяц.

ПРИЯТНОГО ВСЕМ ПРОСМОТРА !!!




--------------------
Безоблачная старость – это миф,
Поскольку наша память – ширь морская,
И к ночи начинается прилив,
Со дна обломки прошлого таская.
Игорь Губерман

Скрыть подпись


Alevtina
№2 Отправлено: 3.04.2017 - 20:32


Время камни собирать...

Группа: Аксакалы
Регистрация: 12.02.2009
Сообщений: 5560
Обитает:
Последний раз был:
вчера в 21:22




bornik, все хорошо скачалось, распаковалось и смотрибельно!!!Спасибо!!! zdarov1.gif


--------------------

Прохожие, купите Доброту!
Лишь за улыбку! Разве ж это много!
Исполните заветную мечту…
И хоть одну из Заповедей Бога!
Снимите маски «гордых» и «крутых»
Купите, хоть немножечко, Терпенья.
И ощутите сердцем, хоть на миг,
Всю прелесть и восторг благодаренья!
Сегодня, АКЦИЯ на Совесть и Любовь!
Притормозите «хаммер» свой, иль «буммер»!
Купите! И волнуйте свою кровь!
От этого ещё никто не умер!


Скрыть подпись
Top
bornik
№3 Отправлено: 4.04.2017 - 02:46


Воспоминания - это богатства старости.

Группа: Модераторы
Регистрация: 18.08.2008
Сообщений: 952
Обитает:
Последний раз был:
cегодня в 12:52




Цитата
( Alevtina @ 3.04.2017 - 20:32)
bornik, все хорошо скачалось, распаковалось и смотрибельно!!!Спасибо!!! zdarov1.gif

И Вам, Alevtina, спасибо за добрую весть. happy_fly.gif


--------------------
Безоблачная старость – это миф,
Поскольку наша память – ширь морская,
И к ночи начинается прилив,
Со дна обломки прошлого таская.
Игорь Губерман

Скрыть подпись
Top
1 человек просматривает эту тему (1 гость)
« Предыдущая тема | Мир вокруг нас | Следующая тема »


 



[Script Execution time: 0,0423]   [23 queries used]   [GZIP enabled]