Заходят многие - остаются лучшие!
Здравствуйте Гость ( Вход | Регистрация ) Выслать повторно письмо для активации
Вход
Ваше имя Пароль Забыли пароль?
Запомнить Вас?
Войти скрытым?



Новые сообщения раздела  

 

 Армия дельфинов / National Geographic. Dolphin Army (2009), National Geographic
bornik
  №1 Отправлено: 8.08.2017 - 01:34


Воспоминания - это богатства старости.

Группа: Модераторы
Регистрация: 18.08.2008
Сообщений: 940
Обитает:
Последний раз был:
cегодня в 11:42




Армия дельфинов / National Geographic. Dolphin Army (2009)



«Армия дельфинов» - одна из огромнейших сил океана. Разные кланы дельфинов собираются в армию внушительных размеров и начинают наступление.

Название: Армия дельфинов
Оригинальное название: Dolphin Army
Год выпуска: 2009
Жанр: Документальный, природа, фауна, флора
Выпущено: США, Aquavision TV Productions for National Geographic Channel
Продолжительность: 00:47:05
Субтитры: Русские (мои)

Режиссёр: Мадлен Картер / Madeleine Carter

Программа озвучена студией "АРК•ТВ"
Текст читет: Александр Гаврилин





Описание: Легион морских существ, «армия дельфинов», действует быстро и эффективно. В поисках пищи стая растет и движется в едином порыве. Раз в году дельфины объёдиняются ради добычи в виде стаи сардин. Но они не одиноки - союзники с воздуха помогут определить местоположение рыбы, а враги-хищники будут бороться, чтобы ухватить свой кусок пирога. Голодные дельфины пойдут на риск, чтобы не упустить шанс раз в год вдоволь полакомиться сардинами. Норорождённые дельфины питаются исключительно молоком, но с 6 месяцев им пора употреблять и рыбу. Охота на сардин - идеальное время... если они выживут. Ведь в этих водах также живут и убийцы - большие белые акулы. Для них всё является едой. И плавающие медленно дельфинята - лёгкая добыча для этого суперхищника. Тёмные акулы тоже следуют за дельфинами в надежде поймать зазевавшегося. У 75% дельфинов обнаруживают шрамы от нападения акул.








General
Complete name : C:\DVD documental fimls\Армия дельфинов\Армия дельфинов (2009).avi
Format : AVI
Format/Info : Audio Video Interleave
File size : 743 MiB
Duration : 47mn 5s
Overall bit rate : 2 204 Kbps
Writing application : VirtualDubMod 1.5.10.2 (build 2540/release)
Writing library : VirtualDubMod build 2540/release

Video
ID : 0
Format : MPEG-4 Visual
Format profile : Advanced Simple@L5
Format settings, BVOP : 2
Format settings, QPel : No
Format settings, GMC : No warppoints
Format settings, Matrix : Default (H.263)
Muxing mode : Packed bitstream
Codec ID : XVID
Codec ID/Hint : XviD
Duration : 47mn 5s
Bit rate : 2 003 Kbps
Width : 720 pixels
Height : 400 pixels
Display aspect ratio : 16:9
Frame rate : 25.000 fps
Color space : YUV
Chroma subsampling : 4:2:0
Bit depth : 8 bits
Scan type : Progressive
Compression mode : Lossy
Bits/(Pixel*Frame) : 0.278
Stream size : 675 MiB (91%)
Writing library : XviD 65

Audio
ID : 1
Format : MPEG Audio
Format version : Version 1
Format profile : Layer 3
Mode : Joint stereo
Mode extension : MS Stereo
Codec ID : 55
Codec ID/Hint : MP3
Duration : 47mn 5s
Bit rate mode : Constant
Bit rate : 192 Kbps
Channel(s) : 2 channels
Sampling rate : 48.0 KHz
Compression mode : Lossy
Stream size : 64.7 MiB (9%)
Alignment : Aligned on interleaves
Interleave, duration : 40 ms (1.00 video frame)
Interleave, preload duration : 504 ms
Writing library : LAME3.98r
Encoding settings : -m j -V 4 -q 3 -lowpass 18.6 -b 192


Записались на автоматическое включение в очередь: Alevtina, Nadejdaenergia, baziss, grival406

Если вы хотите, чтобы вас автоматически ставили в очередь на следующие фильмы о природе,
- сообщите об этом в теме последней раздачи.


=================================

Исходником послужил релиз HDTV, найденный на просторах инета!

Архивы созданы RAR-архиватором с добавлением 3% на восстановление и снабжены sfv-проверочником.
Просьба к первому скачавшему отписаться о сохранности архивов на источнике раздачи.

Раздача рассчитана на месяц.

ПРИЯТНОГО ВСЕМ ПРОСМОТРА !!!




--------------------
Безоблачная старость – это миф,
Поскольку наша память – ширь морская,
И к ночи начинается прилив,
Со дна обломки прошлого таская.
Игорь Губерман

Скрыть подпись


baziss
№2 Отправлено: 8.08.2017 - 02:17


Аксакал обыкновенный

Группа: Аксакалы
Регистрация: 4.12.2005
Сообщений: 2439
Обитает:
Последний раз был:
cегодня в 17:30




Архив в порядке. Большое спасибо!


--------------------

Скрыть подпись
Top
bornik
№3 Отправлено: 8.08.2017 - 03:14


Воспоминания - это богатства старости.

Группа: Модераторы
Регистрация: 18.08.2008
Сообщений: 940
Обитает:
Последний раз был:
cегодня в 11:42




Цитата
baziss @ 8.08.2017 - 02:17
Архив в порядке. Большое спасибо!

И Вам, baziss, спасибо за добрую весть. happy_fly.gif


--------------------
Безоблачная старость – это миф,
Поскольку наша память – ширь морская,
И к ночи начинается прилив,
Со дна обломки прошлого таская.
Игорь Губерман

Скрыть подпись
Top
1 человек просматривает эту тему (1 гость)
« Предыдущая тема | Мир вокруг нас | Следующая тема »


 



[Script Execution time: 0,0412]   [23 queries used]   [GZIP enabled]