Заходят многие - остаются лучшие!
Здравствуйте Гость ( Вход | Регистрация ) Выслать повторно письмо для активации
Вход
Ваше имя Пароль Забыли пароль?
Запомнить Вас?
Войти скрытым?



 Правила раздела Новые сообщения раздела  


 

 С широко закрытыми глазами / Eyes Wide Shut (1999)
будулай
  №1 Отправлено: 8.08.2017 - 10:12


Посетитель

Группа: Форумчане
Регистрация: 13.11.2008
Сообщений: 272
Обитает:
Последний раз был:
cегодня в 13:59




С широко закрытыми глазами / Eyes Wide Shut


Описание
Страна: США, Великобритания
Жанр: Триллер, Драма, Детектив
Год выпуска: 1999
Продолжительность: 02:39:01

Перевод: MartinaG
Закадровый текст: Алексей Матвеев
Субтитры: русские, по переводу MartinaG

Режиссер: Стэнли Кубрик / Stanley Kubrick

В ролях: Том Круз, Николь Кидман, Мэдисон Эджинтон, Джеки Совирис, Сидни Поллак, Лесли Лоу, Питер Бенсон, Тодд Филд, Майкл Доуен, Скай Дюмонт и др.

Описание: Билл и Элис Харфорд — супружеская пара, производящая впечатление счастливых людей, живущих своей размеренной жизнью в полном достатке. Но за фасадом идеальных отношений скрываются потоки ревности, неудовлетворенности, тайных желаний и жажды чего-то запредельного.

Первый шаг делает Элис, рассказывая мужу о своих фантазиях. Терзаемый ревностью Билл идет дальше, выходя за рамки мыслей и слов. Он наяву отправляется в пьянящую сексуальную одиссею, ведомый соблазном и щекочущими нервы переживаниями. Если бы в начале пути он знал, что пределом его мечтаний станет возможность вернуться к своей привычной семейной жизни, он бы не поверил, ведь искушение вкусить запретный плод было слишком сильно...










Сэмпл: https://cloud.mail.ru/public/DZXr/ucB8h3HCY

Материалы под спойлером читать строго после просмотра фильма!




Это сообщение отредактировал будулай - 10.08.2017 - 09:19


Al1
№2 Отправлено: 8.08.2017 - 18:46


Попрошу без ярлыков!

Группа: Потребители
Регистрация: 12.03.2010
Сообщений: 422
Последний раз был:
16.10.2017 - 11:12




Скачалось и успешно распаковалось.
Спасибо!

Во избежание разочарованийц надо заметить, что XViD видеоконтент (с дорожками и субтитрами) упакован в матрешечный контейнер (mkv)
General
Unique ID : 201714145111974899475171305753155819603 (0x97C0BB31BE1DB5E5B7AAB0868D415853)
Complete name : С широко закрытыми глазами.mkv
Format : Matroska
Format version : Version 4 / Version 2
File size : 2.17 GiB
Duration : 2h 39mn
Overall bit rate : 1 951 Kbps
Movie name : Релиз Феникса
Encoded date : UTC 2017-08-08 08:48:32
Writing application : mkvmerge v9.3.1 ('Mask Machine') 64bit
Writing library : libebml v1.3.4 + libmatroska v1.4.5
DURATION : 02:39:01.536000000
NUMBER_OF_FRAMES : 298173
NUMBER_OF_BYTES : 228996864
_STATISTICS_WRITING_APP : mkvmerge v9.3.1 ('Mask Machine') 64bit
_STATISTICS_WRITING_DATE_UTC : 2017-08-08 08:48:32
_STATISTICS_TAGS : BPS DURATION NUMBER_OF_FRAMES NUMBER_OF_BYTES
Attachment : Yes / Yes

Video
ID : 1
Format : MPEG-4 Visual
Format profile : Advanced Simple@L5
Format settings, BVOP : Yes
Format settings, QPel : No
Format settings, GMC : No warppoints
Format settings, Matrix : Custom
Codec ID : XVID
Codec ID/Hint : XviD
Duration : 2h 39mn
Bit rate : 1 080 Kbps
Width : 688 pixels
Height : 384 pixels
Display aspect ratio : 16:9
Frame rate : 23.976 fps
Color space : YUV
Chroma subsampling : 4:2:0
Bit depth : 8 bits
Scan type : Progressive
Compression mode : Lossy
Bits/(Pixel*Frame) : 0.170
Stream size : 1.20 GiB (55%)
Writing library : XviD 1.2.1 (UTC 2008-12-04)
Default : Yes
Forced : No

Audio #1
ID : 2
Format : AC-3
Format/Info : Audio Coding 3
Mode extension : CM (complete main)
Format settings, Endianness : Big
Codec ID : A_AC3
Duration : 2h 39mn
Bit rate mode : Constant
Bit rate : 640 Kbps
Channel(s) : 6 channels
Channel positions : Front: L C R, Side: L R, LFE
Sampling rate : 48.0 KHz
Bit depth : 16 bits
Compression mode : Lossy
Stream size : 728 MiB (33%)
Language : Russian
Default : Yes
Forced : Yes

Audio #2
ID : 4
Format : AC-3
Format/Info : Audio Coding 3
Mode extension : CM (complete main)
Format settings, Endianness : Big
Codec ID : A_AC3
Duration : 2h 39mn
Bit rate mode : Constant
Bit rate : 192 Kbps
Channel(s) : 2 channels
Channel positions : Front: L R
Sampling rate : 48.0 KHz
Bit depth : 16 bits
Compression mode : Lossy
Stream size : 218 MiB (10%)
Default : No
Forced : No

Text
ID : 3
Format : UTF-8
Codec ID : S_TEXT/UTF8
Codec ID/Info : UTF-8 Plain Text
Default : Yes
Forced : No
Top
будулай
№3 Отправлено: 8.08.2017 - 20:37


Посетитель

Группа: Форумчане
Регистрация: 13.11.2008
Сообщений: 272
Обитает:
Последний раз был:
cегодня в 13:59




Цитата
( Al1 @ 8.08.2017 - 18:46)
Скачалось и успешно распаковалось.
Спасибо!

Во избежание разочарованийц надо заметить, что XViD видеоконтент (с дорожками и субтитрами) упакован в матрешечный контейнер (mkv)
General
Unique ID : 201714145111974899475171305753155819603 (0x97C0BB31BE1DB5E5B7AAB0868D415853)
Complete name : С широко закрытыми глазами.mkv
Format : Matroska
Format version : Version 4 / Version 2
File size : 2.17 GiB
Duration : 2h 39mn
Overall bit rate : 1 951 Kbps
Movie name : Релиз Феникса
Encoded date : UTC 2017-08-08 08:48:32
Writing application : mkvmerge v9.3.1 ('Mask Machine') 64bit
Writing library : libebml v1.3.4 + libmatroska v1.4.5
DURATION : 02:39:01.536000000
NUMBER_OF_FRAMES : 298173
NUMBER_OF_BYTES : 228996864
_STATISTICS_WRITING_APP : mkvmerge v9.3.1 ('Mask Machine') 64bit
_STATISTICS_WRITING_DATE_UTC : 2017-08-08 08:48:32
_STATISTICS_TAGS : BPS DURATION NUMBER_OF_FRAMES NUMBER_OF_BYTES
Attachment : Yes / Yes

Video
ID : 1
Format : MPEG-4 Visual
Format profile : Advanced Simple@L5
Format settings, BVOP : Yes
Format settings, QPel : No
Format settings, GMC : No warppoints
Format settings, Matrix : Custom
Codec ID : XVID
Codec ID/Hint : XviD
Duration : 2h 39mn
Bit rate : 1 080 Kbps
Width : 688 pixels
Height : 384 pixels
Display aspect ratio : 16:9
Frame rate : 23.976 fps
Color space : YUV
Chroma subsampling : 4:2:0
Bit depth : 8 bits
Scan type : Progressive
Compression mode : Lossy
Bits/(Pixel*Frame) : 0.170
Stream size : 1.20 GiB (55%)
Writing library : XviD 1.2.1 (UTC 2008-12-04)
Default : Yes
Forced : No

Audio #1
ID : 2
Format : AC-3
Format/Info : Audio Coding 3
Mode extension : CM (complete main)
Format settings, Endianness : Big
Codec ID : A_AC3
Duration : 2h 39mn
Bit rate mode : Constant
Bit rate : 640 Kbps
Channel(s) : 6 channels
Channel positions : Front: L C R, Side: L R, LFE
Sampling rate : 48.0 KHz
Bit depth : 16 bits
Compression mode : Lossy
Stream size : 728 MiB (33%)
Language : Russian
Default : Yes
Forced : Yes

Audio #2
ID : 4
Format : AC-3
Format/Info : Audio Coding 3
Mode extension : CM (complete main)
Format settings, Endianness : Big
Codec ID : A_AC3
Duration : 2h 39mn
Bit rate mode : Constant
Bit rate : 192 Kbps
Channel(s) : 2 channels
Channel positions : Front: L R
Sampling rate : 48.0 KHz
Bit depth : 16 bits
Compression mode : Lossy
Stream size : 218 MiB (10%)
Default : No
Forced : No

Text
ID : 3
Format : UTF-8
Codec ID : S_TEXT/UTF8
Codec ID/Info : UTF-8 Plain Text
Default : Yes
Forced : No

Пожалуйста! И спасибо за информацию о состоянии архивов!
Top
1 человек просматривает эту тему (1 гость)
« Предыдущая тема | Зарубежные фильмы | Следующая тема »


 



[Script Execution time: 0,0833]   [24 queries used]   [GZIP enabled]