Заходят многие - остаются лучшие!
Здравствуйте Гость ( Вход | Регистрация ) Выслать повторно письмо для активации
Вход
Ваше имя Пароль Забыли пароль?
Запомнить Вас?
Войти скрытым?



 Правила раздела Новые сообщения раздела  


 

 Харчевня в Шпессарте / Das Wirtshaus im Spessart (1958), Мюзикл,комедия;Реж.-К.Хофманн;Роли-Л.Пульвер,К.Томпсон
SanSan48
  №1 Отправлено: 8.08.2017 - 20:20


"Спартак" - ЧЕМПИОН!!!

Группа: Пользователи
Регистрация: 28.12.2009
Сообщений: 1808
Обитает:
Последний раз был:
cегодня в 17:28




Харчевня в Шпессарте / Das Wirtshaus im Spessart (1958)



Предыдущие раздачи:
2.01.2010 (DVDrip)
31.01.2007 (VHSrip)
19.02.2007 (VHSrip) (Архив)

Жанр: Мюзикл, комедия, приключения
Выпущено: Германия (ФРГ), Bavaria Film, Georg Witt-Film
Год выпуска: 1958
Премьера (мир): 15 января 1958 (Германия (ФРГ)), 4 июля 1958 (Бельгия), 12 сентября 1958 (Дания)
Сценаристы: Хайнц Паук / Heinz Pauck, Лизелотта Эндерле / Luiselotte Enderle, Гюнтер Нойманн / Günter Neumann, Курт Ханно Гутброд / Curt Hanno Gutbrod, Курт Хоффманн / Kurt Hoffmann
Оператор: Рихард Ангст / Richard Angst
Композитор: Франц Гроте / Franz Grothe
Художники: Арно Рихтер / Arno Richter, Роберт Херлт / Robert Herlth, Курт Херлт / Kurt Herlth, Элизабет Урбанчич / Elisabeth Urbancic
Монтажёр: Клаус фон Боро / Claus von Boro

Режиссер: Курт Хоффманн / Kurt Hoffmann

В ролях:
Лизелотта Пульвер / Liselotte Pulver ... Comtesse Franziska von Sandau
Карлос Томпсон / Carlos Thompson ... Räuberhauptmann
Гюнтер Людерс / Günther Lüders ... Baron Sperling
Рудольф Фогель / Rudolf Vogel ... Buffon Parucchio
Хуберт фон Майеринк / Hubert von Meyerinck ... Polizeimajor
Херберт Хюбнер / Herbert Hübner ... Graf Sandau
Пауль Эссер / Paul Esser ... Corporal
Ина Петерс / Ina Peters ... Zofe Barbara
Кай Фишер / Kai Fischer ... Räuberbraut Bettina
Вероника Фиц / Veronika Fitz ... Magd Luise
Вера Комплойер / Vera Complojer ... Wirtin
Анетт Карманн / Anette Karmann ... Küchenmagd Adele
Хельмут Лонер / Helmuth Lohner ... Felix
Ханс Кларин / Hans Clarin ... Peter
Отто Сторр / Otto Storr ... Pfarrer

Описание: По мотивам сказок Вильгельма Гауфа (Wilhelm Hauff).
Графиня Франциска с женихом едут в свой родовой замок Зандау. На ночь им приходится остановиться в харчевне в глухом месте Шпессарт. Ночью в харчевню врываются бандиты, чтобы похитить графиню и получить за нее выкуп…

Дополнительная информация: Релиз:

Исходник найден в сети.

Автор рипа: pmv

* Первый фильм трилогии пародийных комедий о привидениях в Шпессарте:
"Харчевня в Шпессарте" (1958)
"Привидения в замке Шпессарт" (1960)
"Прекрасные времена в Шпессарте" (1967)


IMDb = 6,5/10 (461) - http://www.imdb.com/title/tt0051200/
Кинопоиск = 6.702 (99) - https://www.kinopoisk.ru/film/170757/

ВНИМАНИЕ!!! РИП ФОРМАТА mkv (кодек H.264) ВОСПРОИЗВОДИТСЯ НЕ НА ВСЕХ БЫТОВЫХ ВИДЕОПЛЕЕРАХ!!!

Параметры файла:
Название: Das Wirtshaus im Spessar (1958, HDrip, rus_MVO+ger).mkv
Качество видео: HDrip
Формат видео: MKV
Размер: 1,45 ГБ (1 564 179 403 байт)
Продолжительность: 01:35:47
Перевод: Профессиональный (многоголосый закадровый) - Петербург «5 канал»
Оригинальная аудиодорожка: немецкий
Видео: AVC (H264), 1072x640 (1.675:1), 25 fps, 1790 kbps, 0.104 Bits/Pixel
Аудио #1: AC3, 48 KHz, stereo (2 ch), 192 kbps - русский
Аудио #2: AC3, 48 KHz, stereo (2 ch), 192 kbps - немецкий



General
Unique ID : 243335900332390305215848837894862770750 (0xB710CA29BE611A6F911E320062CB923E)
Complete name : D:\torrents\Das Wirtshaus im Spessart (1958, HDrip, rus_MVO+ger).mkv
Format : Matroska
Format version : Version 4 / Version 2
File size : 1.46 GiB
Duration : 1 h 35 min
Overall bit rate : 2 177 kb/s
Encoded date : UTC 2017-08-07 19:52:58
Writing application : mkvmerge v14.0.0 ('Flow') 64bit
Writing library : libebml v1.3.4 + libmatroska v1.4.5

Video
ID : 1
Format : AVC
Format/Info : Advanced Video Codec
Format profile : High@L4.1
Format settings, CABAC : Yes
Format settings, ReFrames : 12 frames
Codec ID : V_MPEG4/ISO/AVC
Duration : 1 h 35 min
Bit rate : 1 790 kb/s
Width : 1 072 pixels
Height : 640 pixels
Display aspect ratio : 5:3
Frame rate mode : Constant
Frame rate : 25.000 FPS
Color space : YUV
Chroma subsampling : 4:2:0
Bit depth : 8 bits
Scan type : Progressive
Bits/(Pixel*Frame) : 0.104
Stream size : 1.20 GiB (82%)
Writing library : x264 core 146 r2538 121396c
Encoding settings : cabac=1 / ref=12 / deblock=1:0:0 / analyse=0x3:0x133 / me=umh / subme=10 / psy=1 / psy_rd=1.00:0.00 / mixed_ref=1 / me_range=24 / chroma_me=1 / trellis=2 / 8x8dct=1 / cqm=0 / deadzone=21,11 / fast_pskip=1 / chroma_qp_offset=-2 / threads=48 / lookahead_threads=5 / sliced_threads=0 / nr=0 / decimate=1 / interlaced=0 / bluray_compat=0 / constrained_intra=0 / bframes=8 / b_pyramid=2 / b_adapt=2 / b_bias=0 / direct=3 / weightb=1 / open_gop=0 / weightp=2 / keyint=250 / keyint_min=25 / scenecut=40 / intra_refresh=0 / rc_lookahead=60 / rc=2pass / mbtree=1 / bitrate=1790 / ratetol=1.0 / qcomp=0.60 / qpmin=0 / qpmax=69 / qpstep=4 / cplxblur=20.0 / qblur=0.5 / ip_ratio=1.40 / aq=1:1.00
Language : German
Default : Yes
Forced : No

Audio #1
ID : 2
Format : AC-3
Format/Info : Audio Coding 3
Mode extension : CM (complete main)
Format settings, Endianness : Big
Codec ID : A_AC3
Duration : 1 h 35 min
Bit rate mode : Constant
Bit rate : 192 kb/s
Channel(s) : 2 channels
Channel positions : Front: L R
Sampling rate : 48.0 kHz
Frame rate : 31.250 FPS (1536 spf)
Bit depth : 16 bits
Compression mode : Lossy
Stream size : 131 MiB (9%)
Language : Russian
Default : Yes
Forced : No

Audio #2
ID : 3
Format : AC-3
Format/Info : Audio Coding 3
Mode extension : CM (complete main)
Format settings, Endianness : Big
Codec ID : A_AC3
Duration : 1 h 35 min
Bit rate mode : Constant
Bit rate : 192 kb/s
Channel(s) : 2 channels
Channel positions : Front: L R
Sampling rate : 48.0 kHz
Frame rate : 31.250 FPS (1536 spf)
Bit depth : 16 bits
Compression mode : Lossy
Stream size : 132 MiB (9%)
Language : German
Default : No
Forced : No








МОИ РАЗДАЧИ НА ФЕНИКСе: ЗДЕСЬ




Это сообщение отредактировал SanSan48 - 17.08.2017 - 19:40


--------------------
"Спартак" - ЧЕМПИОН!!!

Скрыть подпись
vjub58
№2 Отправлено: 8.08.2017 - 21:02


Практикующий эсквайр

Группа: Аксакалы
Регистрация: 6.12.2005
Сообщений: 4574
Обитает:
Последний раз был:
18.09.2017 - 09:47




Спасибо, все ОК. pozdrav_buket.gif
Top
SanSan48
№3 Отправлено: 9.08.2017 - 07:14


"Спартак" - ЧЕМПИОН!!!

Группа: Пользователи
Регистрация: 28.12.2009
Сообщений: 1808
Обитает:
Последний раз был:
cегодня в 17:28




Цитата
( vjub58 @ 8.08.2017 - 21:02)
Спасибо, все ОК. pozdrav_buket.gif

vjub58, Благодарю за сообщение!

Приятного всем просмотра!


--------------------
"Спартак" - ЧЕМПИОН!!!

Скрыть подпись
Top
Viacheslav11
№4 Отправлено: 9.08.2017 - 09:42


Новичок

Группа: Потребители
Регистрация: 21.01.2009
Сообщений: 66
Обитает:
Последний раз был:
cегодня в 06:55




Спасибо. Фильм шикарный! А вот интересно - в советском прокате он шел с дубляжом?


Это сообщение отредактировал Viacheslav11 - 9.08.2017 - 09:42
Top
gaidai82
№5 Отправлено: 9.08.2017 - 11:39


Смотрящий. Аксакал в законе.

Группа: Аксакалы
Регистрация: 21.01.2007
Сообщений: 16191
Обитает:
Последний раз был:
16.09.2017 - 17:04




Viacheslav11, этот фильм ВООБЩЕ не шел с СССР.


--------------------
ВОР НЕ ВСЕГДА ВОР, А ДУРАК - ЭТО ПОЖИЗНЕННО!

Александр Дюпре /Ж. - П.Бельмондо/ "Игра в четыре руки"




Тело здесь, а душа далеко
Плюну я, в полупьяный конвой.
Тело здесь, для отчета ментам
А душа там, где мать родила.



Порой закрываю глаза и вспоминаю снова... как мама вела в первый класс, как папа нёс с выпускного.

Скрыть подпись
Top
mazer
№6 Отправлено: 10.08.2017 - 07:10


Прохожий

Группа: Потребители
Регистрация: 15.12.2014
Сообщений: 10
Обитает:
Последний раз был:
cегодня в 16:15




СПАСИБО СКАЧАЛ
Top
Viacheslav11
№7 Отправлено: 10.08.2017 - 14:26


Новичок

Группа: Потребители
Регистрация: 21.01.2009
Сообщений: 66
Обитает:
Последний раз был:
cегодня в 06:55




Цитата
( gaidai82 @ 9.08.2017 - 11:39)
Viacheslav11, этот фильм ВООБЩЕ не шел с СССР.

Жаль, пожалуй - самая интересная часть!
Top
BrownFurry
№8 Отправлено: 11.08.2017 - 20:31


Новичок

Группа: Потребители
Регистрация: 27.10.2009
Сообщений: 82
Обитает:
Последний раз был:
cегодня в 09:27




Даже не подозревал об этой части! wow.gif Всегда считал, что это дилогия. Огромное спасибо за открытие!
Top
1 человек просматривает эту тему (1 гость)
« Предыдущая тема | Зарубежные фильмы | Следующая тема »


 



[Script Execution time: 0,0229]   [24 queries used]   [GZIP enabled]