Заходят многие - остаются лучшие!
Здравствуйте Гость ( Вход | Регистрация ) Выслать повторно письмо для активации
Вход
Ваше имя Пароль Забыли пароль?
Запомнить Вас?
Войти скрытым?



Новые сообщения раздела  

 

 Летним вечером у замка Графенег. Дмитрий Хворостовский, Аида Гарифуллина / Sommernachtsgala. Grafenegg. 22.06.2017, cassical, vocal
Nadejdaenergia
  №1 Отправлено: 19.01.2018 - 11:21


Когда всё плохое уходит, остаётся только хорошее.

Группа: Модераторы
Регистрация: 21.03.2012
Сообщений: 6169
Обитает:
Последний раз был:
13.07.2018 - 16:35
У МЕНЯ РОДИЛСЯ ВНУК !!!




Летним вечером у замка Графенег. Дмитрий Хворостовский, Аида Гарифуллина. 22.06.2017г.




Фестиваль Графенег – крупный международный австрийский фестиваль классической музыки , близкой к Вене . Ежегодный фестиваль проводится на территории Графенегского замка . Две площадки были построены специально для фестиваля в парке замка: открытая сцена Wolkenturm (всего 2 000 человек, открытая в 2007 году), а также новый концертный зал Auditorium (вместимость 1372 человека, открытый в 2008 году).
Художественный руководитель - пианист Рудольф Бухбиндер . Программа фестиваля состоит из симфонической и камерной музыки, а также концертов. Выступают и международные оркестры, а также австрийский оркестр Tonkünstler , который выступает в качестве оркестра в резиденции.

Дмитрий Хворостовский, баритон
Аида Гарифуллина, сопрано
Tonkünstler-Orchestra Niederösterreich
Yutaka Sado - dirigent
22 Juni 2017, Grafenegg, Wolkenturm
Продолжительность: 00:56:49
Запись трансляции немецкого канала 3sat

В концерте прозвучали :

Пётр Ильич Чайковский
- Гопак из оперы "Мазепа"
- Колыбельная Марии из оперы "Мазепа" – Аида Гарифуллина

Wolfgang Amadeus Mozart / Вольфганг Амадей Моцарт
- Ouvertüre zur Oper "Don Giovanni" KV 527 / Увертюра к опере «Дон Жуан», KV 527
- "Là ci darem la mano" Duettino Zerlina - Don Giovanni aus der Oper "Don Giovanni" / Дуэт Зерлины и Дон Жуана «Там мы отдадим свою руку» из оперы «Дон Жуан» - Аида Гарифуллина и Дмитрий Хворостовский

Giuseppe Verdi / Джузеппе Верди
- Ouvertüre zur Oper "La forza del destino" / Увертюра к опере «Сила судьбы»
- "Cortigiani, vil razza dannata" Arie des Rigoletto aus der Oper "Rigoletto" / Ария Риголетто из оперы «Риголетто» - Дмитрий Хворостовский

Giacomo Puccini / Джакомо Пуччини
- "Quando me'n vo" Walzer der Musette aus der Oper "La Bohème" / Вальс Мюзетты из оперы «Богема» - Аида Гарифуллина

Pietro Mascagni / Пьетро Масканьи
- Intermezzo sinfonico aus der Oper "Cavalleria rusticana" / Симфоническая интерлюдия к опере «Сельская честь»

Ruggero Leoncavallo / Руджеро Леонкавалло
- "Mattinata" (Bearbeitung: Giancarlo Chiaramello) / «Маттината» (обработка Джанкарло Чиарамелло) – Аида Гарифуллина

Ernesto Tagliaferri / Эрнесто Тальяферри
- "Passione" Neapolitanisches Lied (in Zusammenarbeit mit Nicola Valente) (Bearbeitung: Luca Logi) / Неаполитанская песня «Страсть» (в сотрудничестве с Никола Валенте) (обработка Люка Лоджи) – Дмитрий Хворостовский

- Романс "Очи чёрные" - Дмитрий Хворостовский

Василий Павлович Соловьёв-Седой
- «Подмосковные вечера» - Дмитрий Хворостовский и Аида Гарифуллина

Edward Elgar / Эдуард Элгар
- «Pomp and Circumstance», Marsch op.39/1 / «Великолепие и пышность» (Пышность и обстоятельство), Марш соч. 39/1



Complete name : Hvorostovskiy.Garifullina.Sommernachtsgala.Grafenegg.22.06.2017.fenixclub.com.avi
Format : AVI
Format/Info : Audio Video Interleave
File size : 962 MiB
Duration : 56mn 49s
Overall bit rate : 2 368 Kbps
Writing application : VirtualDubMod 1.5.10.3 | www.virtualdub-fr.org || (build 2550/release)
Writing library : VirtualDubMod build 2550/release

Video
ID : 0
Format : MPEG-4 Visual
Format profile : Advanced Simple@L5
Format settings, BVOP : 1
Format settings, QPel : No
Format settings, GMC : No warppoints
Format settings, Matrix : Default (MPEG)
Codec ID : DX50
Codec ID/Hint : DivX 5
Duration : 56mn 49s
Bit rate : 1 901 Kbps
Width : 720 pixels
Height : 400 pixels
Display aspect ratio : 16:9
Frame rate : 50.000 fps
Color space : YUV
Chroma subsampling : 4:2:0
Bit depth : 8 bits
Scan type : Progressive
Compression mode : Lossy
Bits/(Pixel*Frame) : 0.132
Stream size : 772 MiB (80%)
Writing library : XviD 1.2.1 (UTC 2008-12-04)

Audio
ID : 1
Format : AC-3
Format/Info : Audio Coding 3
Mode extension : CM (complete main)
Format settings, Endianness : Big
Codec ID : 2000
Duration : 56mn 48s
Bit rate mode : Constant
Bit rate : 448 Kbps
Channel(s) : 6 channels
Channel(s)_Original : 5 channels
Channel positions : Front: L C R, Side: L R
Sampling rate : 48.0 KHz
Bit depth : 16 bits
Compression mode : Lossy
Stream size : 182 MiB (19%)
Alignment : Split accross interleaves
Interleave, duration : 20 ms (1.00 video frame)
Interleave, preload duration : 500 ms






За исходник mkv 1280 x 720 благодарности Aspid


Архив создан архиватором RAR и снабжён sfv-проверочником. Раздача рассчитана на месяц.

Просьба первым скачавшим сообщить о состоянии архива.



Концерт великолепен! Очень хочется обратить внимание на культуру поведения, пришедших послушать классическую музыку в таком красивом месте, как замок Графенег: количество желающих послушать превышает количество посадочных мест у открытой сцены, и люди культурно сидят на ковриках на лужайке, окружающей сцену. О каком-либо набросанном мусоре нет и речи.

Игра оркестра доставляет удовольствие, а дирижёр Ютака Садо так отдаётся своей работе, что к концу концерта его лицо блестит от пота.

Вокалисты поют превосходно! Мастерство никуда не пропадает. Грустно видеть Хворостовского уже глубоко больным и понимать на настоящий момент, что его уже нет с нами...




--------------------


1. Только надеяться - мало толка.
И все-таки, разумеется,
надо надеяться, но только
НЕ ТОЛЬКО надеяться.

2. Мудрость простейших истин признав,
Повесь на стену себе
Знак сокровенный, таинственный Знак
ВТВ.
И если к вершине долгий путь
Стал непосильным бременем –
Вспомни, прежде чем повернуть:
Всё Требует Времени…


Piet Hein Jr.

Скрыть подпись


Владимир54
№2 Отправлено: 19.01.2018 - 15:21


Старожил

Группа: Потребители
Регистрация: 7.10.2010
Сообщений: 540
Обитает:
Последний раз был:
вчера в 15:39




Архивы в порядке. Спасибо.
Top
Nadejdaenergia
№3 Отправлено: 20.01.2018 - 14:16


Когда всё плохое уходит, остаётся только хорошее.

Группа: Модераторы
Регистрация: 21.03.2012
Сообщений: 6169
Обитает:
Последний раз был:
13.07.2018 - 16:35
У МЕНЯ РОДИЛСЯ ВНУК !!!




Владимир54, благодарю за известие.


--------------------


1. Только надеяться - мало толка.
И все-таки, разумеется,
надо надеяться, но только
НЕ ТОЛЬКО надеяться.

2. Мудрость простейших истин признав,
Повесь на стену себе
Знак сокровенный, таинственный Знак
ВТВ.
И если к вершине долгий путь
Стал непосильным бременем –
Вспомни, прежде чем повернуть:
Всё Требует Времени…


Piet Hein Jr.

Скрыть подпись
Top
Nadejdaenergia
№4 Отправлено: 12.03.2018 - 11:27


Когда всё плохое уходит, остаётся только хорошее.

Группа: Модераторы
Регистрация: 21.03.2012
Сообщений: 6169
Обитает:
Последний раз был:
13.07.2018 - 16:35
У МЕНЯ РОДИЛСЯ ВНУК !!!




Все заливы на Облако сохраняются. При желании скачать пишите в ПМ.


--------------------


1. Только надеяться - мало толка.
И все-таки, разумеется,
надо надеяться, но только
НЕ ТОЛЬКО надеяться.

2. Мудрость простейших истин признав,
Повесь на стену себе
Знак сокровенный, таинственный Знак
ВТВ.
И если к вершине долгий путь
Стал непосильным бременем –
Вспомни, прежде чем повернуть:
Всё Требует Времени…


Piet Hein Jr.

Скрыть подпись
Top
1 человек просматривает эту тему (1 гость)
« Предыдущая тема | Музыкальное видео | Следующая тема »


 



[Script Execution time: 0,0675]   [22 queries used]   [GZIP enabled]