Заходят многие - остаются лучшие!
Здравствуйте Гость ( Вход | Регистрация ) Выслать повторно письмо для активации
Вход
Ваше имя Пароль Забыли пароль?
Запомнить Вас?
Войти скрытым?



 Правила раздела Новые сообщения раздела  


 

 Крайний срок – на рассвете / Deadline at Dawn (1946), К 100-летнему юбилею Сьюзен Хэйуорд
surzhoks
  №1 Отправлено: 14.04.2017 - 21:01


Старожил

Группа: Аксакалы
Регистрация: 17.03.2008
Сообщений: 955
Обитает:
Последний раз был:
cегодня в 19:52




Крайний срок – на рассвете / Deadline at Dawn


Страна: США
Студия: RKO Radio Pictures Inc.
Жанр: фильм-нуар, триллер, мелодрама, детектив
Год выпуска: 1946
Продолжительность: 01:23:01
Режиссер: Гарольд Клурман / Harold Clurman
Композитор: Ганнс Эйслер / Hanns Eisler
В ролях:
Сьюзен Хэйуорд / Susan Hayward ... June Goth
Пол Лукас / Paul Lukas ... Gus Hoffman
Билл Уильямс / Bill Williams ... Alex Winkley
Джозеф Каллейа / Joseph Calleia ... Val Bartelli
Оса Массен / Osa Massen ... Helen Robinson
Лола Лэйн / Lola Lane ... Edna Bartelli
Джером Кауэн / Jerome Cowan ... Lester Brady
Марвин Миллер / Marvin Miller ... Sleepy Parsons
Роман Бонен / Roman Bohnen ... Collarless Man
Стивен Герэй / Steven Geray ... Gloved Man
Джо Сойер / Joe Sawyer ... Babe Dooley
Констанс Уорт / Constance Worth ... Mrs. Nan Raymond
Джозеф Крехан / Joseph Crehan ... Lt. Kane

Описание: Моряк Алекс провел вечер со случайной знакомой, которая позвала его к себе починить радио. Он не помнит, как вечер закончился, придя в себя только на улице с большой суммой денег в кармане. Пытаясь вернуть деньги, он обнаруживает, что женщина убита. Понимая, что первое подозрение упадет на него, Алекс старается узнать, кто настоящий убийца. Времени у него – до рассвета, когда ему нужно ехать на службу. В действие втягивается все больше людей, а ситуация запутывается все сильнее...
Единственный фильм, снятый легендарным театральным режиссером Гарольдом Клурманом.
Раздача посвящена 100-летию Сьюзен Хэйуорд (30 июня 1917 - 14 марта 1975)

Доп. информация:
Огромное спасибо всем причастным к релизу:
рип - Магда,
перевод фильма, субтитры - Vadmamed,
озвучивание фильма (по русским субтитрам) - fiendover (Виктор Рутилов),
работа со звуком и реавторинг исходного DVD- AlekceyR76,
финансовая поддержка перевода и озвучивания фильма:
Магда, Lafajet, jasenka, елена 22, yanaelisa, surzhoks, Ugo927, voostorg, борюська, sindzi, HippopotamusIV, Patsy+

Архивы созданы RAR-архиватором с добавлением 3% на восстановление и снабжены sfv-проверочником.
Просьба к первому скачавшему отписаться о сохранности архивов на источнике раздачи.

Раздача рассчитана на 2 месяца. На просмотр линка и скачивание 5 дней!
В случае если вы встали в очередь, а затем отказываетесь от скачивания без объяснения причин, возможен отказ в последующих моих раздачах.



Полное имя :Deadline at Dawn.avi
Формат : AVI
Формат/Информация : Audio Video Interleave
Размер файла : 1,46 Гбайт
Продолжительность : 1 ч. 23 м.
Общий поток : 2514 Кбит/сек
Программа кодирования : VirtualDubMod 1.5.10.3 | www.virtualdub-fr.org || (build 2550/release)
Библиотека кодирования : VirtualDubMod build 2550/release

Видео
Идентификатор : 0
Формат : MPEG-4 Visual
Профиль формата : Advanced Simple@L5
Параметр BVOP формата : 2
Параметр QPel формата : Нет
Параметр GMC формата : Без точки перехода
Параметр матрицы формата : Default (H.263)
Идентификатор кодека : DX50
Идентификатор кодека/Подсказка : DivX 5
Продолжительность : 1 ч. 23 м.
Битрейт : 2116 Кбит/сек
Ширина : 640 пикселей
Высота : 480 пикселей
Соотношение сторон : 4:3
Частота кадров : 23,976 кадра/сек
Цветовое пространство : YUV
Субдискретизация насыщенности : 4:2:0
Битовая глубина : 8 бит
Тип развёртки : Прогрессивная
Метод сжатия : С потерями
Бит/(Пиксели*Кадры) : 0.287
Размер потока : 1,23 Гбайт (84%)
Библиотека кодирования : XviD 73

Аудио #1
Идентификатор : 1
Формат : AC-3
Формат/Информация : Audio Coding 3
Расширение режима : CM (complete main)
Параметр Endianness формата : Big
Идентификатор кодека : 2000
Продолжительность : 1 ч. 23 м.
Вид битрейта : Постоянный
Битрейт : 192 Кбит/сек
Каналы : 1 канал
Расположение каналов : Front: C
Частота : 48,0 КГц
Битовая глубина : 16 бит
Метод сжатия : С потерями
Размер потока : 114 Мбайт (8%)
Выравнивание : Разделение по промежуткам
Продолжительность промежутка : 42 мс. (1,00 видеокадр)
Время предзагрузки промежутка : 500 мс.

Аудио #2
Идентификатор : 2
Формат : AC-3
Формат/Информация : Audio Coding 3
Расширение режима : CM (complete main)
Параметр Endianness формата : Big
Идентификатор кодека : 2000
Продолжительность : 1 ч. 23 м.
Вид битрейта : Постоянный
Битрейт : 192 Кбит/сек
Каналы : 1 канал
Расположение каналов : Front: C
Частота : 48,0 КГц
Битовая глубина : 16 бит
Метод сжатия : С потерями
Размер потока : 114 Мбайт (8%)
Выравнивание : Разделение по промежуткам
Продолжительность промежутка : 42 мс. (1,00 видеокадр)
Время предзагрузки промежутка : 500 мс.




--------------------
Искусство откладывать деньги сводится к умению сказать “нет” потребительскому обществу.

Скрыть подпись


vjub58
№2 Отправлено: 14.04.2017 - 23:34


Практикующий эсквайр

Группа: Аксакалы
Регистрация: 6.12.2005
Сообщений: 4533
Обитает:
Последний раз был:
cегодня в 22:00




Спасибо, все ОК. pozdrav_buket.gif
Top
pushistiy
№3 Отправлено: 15.04.2017 - 11:40


Старожил

Группа: Потребители
Регистрация: 8.12.2013
Сообщений: 571
Последний раз был:
cегодня в 07:43




Тоже интересный сюжет. Что-то похожее на предыдущий фильм ("По эту сторону закона"), чувствую, героя опять-же дурят. Берём, однако. sad.gif
P.S. Ну что-же, вполне смотрибельно. wink2.gif


Это сообщение отредактировал pushistiy - 15.04.2017 - 13:24
Top
surzhoks
№4 Отправлено: 16.04.2017 - 08:09


Старожил

Группа: Аксакалы
Регистрация: 17.03.2008
Сообщений: 955
Обитает:
Последний раз был:
cегодня в 19:52




pushistiy, рада, что Вам понравилось!


--------------------
Искусство откладывать деньги сводится к умению сказать “нет” потребительскому обществу.

Скрыть подпись
Top
1 человек просматривает эту тему (1 гость)
« Предыдущая тема | Зарубежные фильмы | Следующая тема »


 



[Script Execution time: 0,0794]   [23 queries used]   [GZIP enabled]