Заходят многие - остаются лучшие!
Здравствуйте Гость ( Вход | Регистрация ) Выслать повторно письмо для активации
Вход
Ваше имя Пароль Забыли пароль?
Запомнить Вас?
Войти скрытым?



Новые сообщения раздела  

 

 Разные лица... Джордж Майкл / The Changing Face of... George Michael (2014) TVRip, Биографии знаменитостей
bornik
  №1 Отправлено: 6.01.2017 - 09:14


Воспоминания - это богатства старости.

Группа: Модераторы
Регистрация: 18.08.2008
Сообщений: 950
Обитает:
На форуме с:
cегодня в 11:09




Разные лица... Джордж Майкл / The Changing Face of... George Michael (2014)



«Джордж Майкл» - (англ. George Michael, настоящее имя Йоргос Кириакос Панайоту; 25 июня 1963, Лондон — 25 декабря 2016, Оксфордшир) — британский певец, поэт и композитор.
За время музыкальной карьеры (сольной и в составе дуэта Wham!) было продано около 100 миллионов экземпляров его записей, что делает Майкла одним из самых успешных поп-певцов. Обладатель двух премий «Грэмми» — в категории «Альбом года» (Faith, 1988 год) и за лучший R&B дуэт (с Аретой Франклин, песня I Knew You Were Waiting (For Me), 1987).

Год выпуска: 2014
Жанр: Документальный, музыкальный, история, биография
Выпущено: Великобритания, совместное производство компаний back2back Productions и TVF International, специализирующихся на документальном кино.
Продолжительность: 00:52:20

Режиссёр: Лиза Фэрбэнк / Lisa Fairbank

В ролях: Джордж Майкл / George Michael

Описание: Цикл "Разные лица / Изменяющийся облик" представляет новую серию биографий знаменитостей, чья звездная карьера охватывает целые десятилетия.
Не последнюю роль в их успешности играл сформировавшийся образ звезды, только ей присущий оригинальный и неповторимый имидж. Чрезвычайно талантливые на своем поприще, они были невероятно изобретательны в эксплуатации своего имиджа, оставаясь всегда в центре внимания публики.
Эта серия посвящена звезде поп-музыки, британскому певцу с греческими корнями Джорджу Майклу. Мы привыкли видеть это лицо с 80-х и наблюдали, как певец молодежной группы постепенно превращается в гей-икону.







General
Complete name : C:\Cinema\DVD documental fimls\Разные лица... Джордж Майкл (2014) TVRip.avi
Format : AVI
Format/Info : Audio Video Interleave
File size : 821 MiB
Duration : 52mn 7s
Overall bit rate : 2 203 Kbps
Writing application : VirtualDubMod 1.5.10.2 (build 2540/release)
Writing library : VirtualDubMod build 2540/release

Video
ID : 0
Format : MPEG-4 Visual
Format profile : Advanced Simple@L5
Format settings, BVOP : 2
Format settings, QPel : No
Format settings, GMC : No warppoints
Format settings, Matrix : Default (H.263)
Muxing mode : Packed bitstream
Codec ID : XVID
Codec ID/Hint : XviD
Duration : 52mn 7s
Bit rate : 2 002 Kbps
Width : 720 pixels
Height : 432 pixels
Display aspect ratio : 1.667
Frame rate : 25.000 fps
Color space : YUV
Chroma subsampling : 4:2:0
Bit depth : 8 bits
Scan type : Progressive
Compression mode : Lossy
Bits/(Pixel*Frame) : 0.257
Stream size : 746 MiB (91%)
Writing library : XviD 65

Audio
ID : 1
Format : MPEG Audio
Format version : Version 1
Format profile : Layer 3
Mode : Joint stereo
Mode extension : MS Stereo
Codec ID : 55
Codec ID/Hint : MP3
Duration : 52mn 7s
Bit rate mode : Constant
Bit rate : 192 Kbps
Channel(s) : 2 channels
Sampling rate : 48.0 KHz
Compression mode : Lossy
Stream size : 71.6 MiB (9%)
Alignment : Aligned on interleaves
Interleave, duration : 40 ms (1.00 video frame)
Interleave, preload duration : 504 ms
Writing library : LAME3.98r
Encoding settings : -m j -V 4 -q 3 -lowpass 18.6 -b 192


=================================

Исходником послужил релиз DVB от ralf124c41+, взятый с Рутрекера, за что ему БОЛЬШОЕ СПАСИБО!

Архивы созданы RAR-архиватором с добавлением 3% на восстановление и снабжены sfv-проверочником.
Просьба к первому скачавшему отписаться о сохранности архивов на источнике раздачи.

Раздача рассчитана на месяц.

ПРИЯТНОГО ВСЕМ ПРОСМОТРА !!!




--------------------
Безоблачная старость – это миф,
Поскольку наша память – ширь морская,
И к ночи начинается прилив,
Со дна обломки прошлого таская.
Игорь Губерман

Скрыть подпись


lefort
№2 Отправлено: 6.01.2017 - 19:30


Завсегдатай

Группа: Аксакалы
Регистрация: 23.12.2007
Сообщений: 416
Обитает:
Последний раз был:
вчера в 19:45




Архивы в порядке. Всё скачалось и собралось. Спасибо.
Top
bornik
№3 Отправлено: 6.01.2017 - 19:41


Воспоминания - это богатства старости.

Группа: Модераторы
Регистрация: 18.08.2008
Сообщений: 950
Обитает:
На форуме с:
cегодня в 11:09




Цитата
( lefort @ 6.01.2017 - 19:30)
Архивы в порядке. Всё скачалось и собралось. Спасибо.

И Вам, lefort, спасибо за добрую весть. happy_fly.gif


--------------------
Безоблачная старость – это миф,
Поскольку наша память – ширь морская,
И к ночи начинается прилив,
Со дна обломки прошлого таская.
Игорь Губерман

Скрыть подпись
Top
bornik
№4 Отправлено: 4.03.2017 - 02:44


Воспоминания - это богатства старости.

Группа: Модераторы
Регистрация: 18.08.2008
Сообщений: 950
Обитает:
На форуме с:
cегодня в 11:09




Всем спасибо.
Очередь закрыта. Если есть желающие - пишите в ПМ. wink2.gif


--------------------
Безоблачная старость – это миф,
Поскольку наша память – ширь морская,
И к ночи начинается прилив,
Со дна обломки прошлого таская.
Игорь Губерман

Скрыть подпись
Top
1 человек просматривает эту тему (1 гость)
« Предыдущая тема | Мир и люди искусства | Следующая тема »


 



[Script Execution time: 0,0594]   [23 queries used]   [GZIP enabled]