Заходят многие - остаются лучшие!
Здравствуйте Гость ( Вход | Регистрация ) Выслать повторно письмо для активации
Вход
Ваше имя Пароль Забыли пароль?
Запомнить Вас?
Войти скрытым?



Новые сообщения раздела  

 

 Прогулка по городу Петергоф (2012), RTG Production Studios
bornik
  №1 Отправлено: 4.06.2018 - 18:24


Воспоминания - это богатства старости.

Группа: Модераторы
Регистрация: 18.08.2008
Сообщений: 1036
Обитает:
Последний раз был:
cегодня в 04:22




Прогулка по городу Петергоф (2012)



«Прогулка по городу Петергоф» - до начала XVIII века на месте Петергофа на берегу Финского залива находились финские деревни Куусоя, Похьяёки и к югу от них, на Поповой горе (ныне Бабигонские высоты), - деревня Папингондо.

Оригинальное название: Прогулка по городу Петергоф
Год выпуска: 2012
Жанр: Документальный, познавательный
Выпущено: Россия, , RTG Production Studios
Продолжительность: 00:27:25
Субтитры: Русские (мои)

Режиссёр: Мария Смелкова / Maria Smelkova
Сценарист: Владимир Васильев / Vladimir Vasiliev

Ведущий: Александр Уваров / Alexander Uvarov

Описание: Впервые Петергоф (нем. Peterhof — Петров двор) упоминается в походном журнале Петра I от 13 сентября 1705 году как «путевой двор» и пристань для переезда на остров Котлин. Это была одна из многих мыз («попутных светлиц»), построенных по дороге из Санкт-Петербурга вдоль южного берега Финского залива. Город был основан в начале XVIII века во время строительства роскошной летней царской резиденции. Тысячи туристов ежегодно приезжают, чтобы полюбоваться архитектурными ансамблями Петергофа. Немало объектов здесь построены с использованием элементов готического стиля: железнодорожный вокзал, почта, императорские конюшни.
Фильм рассказывает о духовном центре Петергофа - соборе святых апостолов Петра и Павла, о дворце Бельведер и дворцово-парковом ансамбле Сергиевка, где в тенистой чаще можно увидеть гигантскую гранитную голову. Говорят, именно она вдохновила поэта Александра Сергеевича Пушкина на сочинение соответствующего эпизода в поэме «Руслан и Людмила».
Зрителям предлагается совершить небольшую видеоэкскурсию и узнать для себя немало нового и интересного!









General
Complete name : C:\DVD documental fimls\RTG\Прогулка по городу Петергоф\Прогулка по городу Петергоф (2012).avi
Format : AVI
Format/Info : Audio Video Interleave
File size : 432 MiB
Duration : 27mn 25s
Overall bit rate : 2 204 Kbps
Writing application : VirtualDubMod 1.5.10.2 (build 2540/release)
Writing library : VirtualDub build 35491/release

Video
ID : 0
Format : MPEG-4 Visual
Format profile : Advanced Simple@L5
Format settings, BVOP : 2
Format settings, QPel : No
Format settings, GMC : No warppoints
Format settings, Matrix : Default (H.263)
Muxing mode : Packed bitstream
Codec ID : XVID
Codec ID/Hint : XviD
Duration : 27mn 25s
Bit rate : 2 002 Kbps
Width : 720 pixels
Height : 400 pixels
Display aspect ratio : 16:9
Frame rate : 25.000 fps
Color space : YUV
Chroma subsampling : 4:2:0
Bit depth : 8 bits
Scan type : Progressive
Compression mode : Lossy
Bits/(Pixel*Frame) : 0.278
Stream size : 393 MiB (91%)
Writing library : XviD 65

Audio
ID : 1
Format : MPEG Audio
Format version : Version 1
Format profile : Layer 3
Mode : Joint stereo
Codec ID : 55
Codec ID/Hint : MP3
Duration : 27mn 25s
Bit rate mode : Constant
Bit rate : 192 Kbps
Channel(s) : 2 channels
Sampling rate : 48.0 KHz
Compression mode : Lossy
Delay relative to video : 16ms
Stream size : 37.7 MiB (9%)
Alignment : Split accross interleaves
Interleave, duration : 40 ms (1.00 video frame)
Interleave, preload duration : 500 ms
Writing library : LAME3.98.2


=================================

Исходником послужил релиз HDTV, найденный на просторах инета!

Архивы созданы RAR-архиватором с добавлением 3% на восстановление и снабжены sfv-проверочником.
Просьба к первому скачавшему отписаться о сохранности архивов на источнике раздачи.


ПРИЯТНОГО ВСЕМ ПРОСМОТРА !!!




--------------------
Безоблачная старость – это миф,
Поскольку наша память – ширь морская,
И к ночи начинается прилив,
Со дна обломки прошлого таская.
Игорь Губерман

Скрыть подпись


OldLady
№2 Отправлено: 4.06.2018 - 19:58


секрет

Группа: Аксакалы
Регистрация: 26.03.2006
Сообщений: 3306
Последний раз был:
cегодня в 10:45




Все в порядке, спасибо!
Top
bornik
№3 Отправлено: 4.06.2018 - 20:53


Воспоминания - это богатства старости.

Группа: Модераторы
Регистрация: 18.08.2008
Сообщений: 1036
Обитает:
Последний раз был:
cегодня в 04:22




Цитата
( OldLady @ 4.06.2018 - 19:58)
Все в порядке, спасибо!

И Вам, OldLady, спасибо за добрую весть. happy_fly.gif


--------------------
Безоблачная старость – это миф,
Поскольку наша память – ширь морская,
И к ночи начинается прилив,
Со дна обломки прошлого таская.
Игорь Губерман

Скрыть подпись
Top
1 человек просматривает эту тему (1 гость)
« Предыдущая тема | Мир вокруг нас | Следующая тема »


 



[Script Execution time: 0,0332]   [23 queries used]   [GZIP enabled]