Заходят многие - остаются лучшие!
Здравствуйте Гость ( Вход | Регистрация ) Выслать повторно письмо для активации
Вход
Ваше имя Пароль Забыли пароль?
Запомнить Вас?
Войти скрытым?



 Правила раздела Новые сообщения раздела  


 

 Паук / Zirneklis / The Spider (1991), Ужасы,эротика;Реж.-В.Масс;Роли-А.Анужите,Л.Лауцявичюс,М.Мартинсоне
SanSan48
  №1 Отправлено: 10.11.2017 - 15:14


"Спартак" - ЧЕМПИОН!!!

Группа: Пользователи
Регистрация: 28.12.2009
Сообщений: 1823
Обитает:
Последний раз был:
cегодня в 09:36




Паук / Zirneklis / The Spider (1991)



Жанр: Ужасы, эротика
Выпущено: СССР, Рижская киностудия
Год выпуска: 1991
Сценарист: Владимир Кайякс
Оператор: Гвидо Скулте
Композитор: Мартиньш Браунс
Художники: Инара Антоне, Галина Масс, Нейлс Матисс
Монтажёр: З.Гейстарте

Режиссёр: Василий Масс

В ролях:
Аурелия Анужите ... Вита
Любомирас Лауцявичюс ... художник - дублирует Тимофей Спивак
Саулюс Баландис ...
Мирдза Мартинсоне ...
Ромуальд Анцанс ...
Альгирдас Паулавичюс ...
Мерле Каппел
Владимир Шакало
Дзинтра Исаева

Описание: В современном европейском городе живет юная симпатичная Вита. Всё идет по строго заведенному порядку - дом, гимназия, друзья, спевки церковного хора. Но однажды в ее жизни появляется художник. Впечатлительная девушка приходит в мастерскую маэстро. Художник для своего портрета Марии Магдалены выбрал Виту - молодую натурщицу. Обнажённо-чувственный, деформированный мир его полотен пугает Виту, и в то же время пробуждает её неосознанную сексуальность. После начала сеансов ей стали сниться странные мистические сны, приоткрывая окно в потусторонний мир, полный зла и порока. В них художник превращается в гигантского паука и пытается овладеть ею. Неосознанные сексуальные влечения вызывают чувство страха и беспомощности. Мрак поглощает и засасывает. Только свет настоящей любви рассеивает призраки, избавляя её из сетей мистической паутины…

Дополнительная информация: Релиз:

Исходник найден в сети.

Автор рипа: pmv

IMDb = 6,3/10 (85) - http://www.imdb.com/title/tt0193660/
Кинопоиск = 6.130 (115) - https://www.kinopoisk.ru/film/pauk-1991-45359/

ВНИМАНИЕ!!! РИП ФОРМАТА mkv (кодек H.264) ВОСПРОИЗВОДИТСЯ НЕ НА ВСЕХ БЫТОВЫХ ВИДЕОПЛЕЕРАХ!!!

Параметры файла:
Название: Паук (1991, rus_dub+eng_sub).mkv
Качество видео: HDrip
Формат видео: MKV
Размер: 1,37 ГБ (1 478 019 882 байт)
Продолжительность: 01:38:50
Видео: AVC (H264), 768x576 (4:3), 23.976 fps, 1800 kbps, 0.170 Bits/Pixel
Аудио: AC3, 48 KHz, stereo (2 ch), 192 kbps
Субтитры: английские
Формат субтитров: SubRip (srt)



General
Unique ID : 190869504458115549415366393729223354517 (0x8F9821210DFCDDE5B7797F70F985E895)
Complete name : D:\torrents\Паук (1991, rus_dub+eng_sub).mkv
Format : Matroska
Format version : Version 4 / Version 2
File size : 1.38 GiB
Duration : 1 h 38 min
Overall bit rate : 1 994 kb/s
Encoded date : UTC 2017-11-09 13:34:51
Writing application : mkvmerge v17.0.0 ('Be Ur Friend') 64-bit
Writing library : libebml v1.3.5 + libmatroska v1.4.8

Video
ID : 1
Format : AVC
Format/Info : Advanced Video Codec
Format profile : High@L4.1
Format settings, CABAC : Yes
Format settings, ReFrames : 16 frames
Codec ID : V_MPEG4/ISO/AVC
Duration : 1 h 38 min
Bit rate : 1 800 kb/s
Width : 768 pixels
Height : 576 pixels
Display aspect ratio : 4:3
Frame rate mode : Constant
Frame rate : 23.976 (23976/1000) FPS
Original frame rate : 23.976 (24000/1001) FPS
Color space : YUV
Chroma subsampling : 4:2:0
Bit depth : 8 bits
Scan type : Progressive
Bits/(Pixel*Frame) : 0.170
Stream size : 1.24 GiB (90%)
Writing library : x264 core 146 r2538 121396c
Encoding settings : cabac=1 / ref=16 / deblock=1:0:0 / analyse=0x3:0x133 / me=umh / subme=10 / psy=1 / psy_rd=1.00:0.00 / mixed_ref=1 / me_range=24 / chroma_me=1 / trellis=2 / 8x8dct=1 / cqm=0 / deadzone=21,11 / fast_pskip=1 / chroma_qp_offset=-2 / threads=66 / lookahead_threads=4 / sliced_threads=0 / nr=0 / decimate=1 / interlaced=0 / bluray_compat=0 / constrained_intra=0 / bframes=8 / b_pyramid=2 / b_adapt=2 / b_bias=0 / direct=3 / weightb=1 / open_gop=0 / weightp=2 / keyint=250 / keyint_min=23 / scenecut=40 / intra_refresh=0 / rc_lookahead=60 / rc=2pass / mbtree=1 / bitrate=1800 / ratetol=1.0 / qcomp=0.60 / qpmin=0 / qpmax=69 / qpstep=4 / cplxblur=20.0 / qblur=0.5 / ip_ratio=1.40 / aq=1:1.00
Language : Russian
Default : Yes
Forced : No

Audio
ID : 2
Format : AC-3
Format/Info : Audio Coding 3
Mode extension : CM (complete main)
Format settings, Endianness : Big
Codec ID : A_AC3
Duration : 1 h 38 min
Bit rate mode : Constant
Bit rate : 192 kb/s
Channel(s) : 2 channels
Channel positions : Front: L R
Sampling rate : 48.0 kHz
Frame rate : 31.250 FPS (1536 spf)
Bit depth : 16 bits
Compression mode : Lossy
Stream size : 136 MiB (10%)
Language : Russian
Default : Yes
Forced : No

Text
ID : 3
Format : UTF-8
Codec ID : S_TEXT/UTF8
Codec ID/Info : UTF-8 Plain Text
Duration : 1 h 38 min
Bit rate : 18 b/s
Count of elements : 510
Stream size : 13.7 KiB (0%)
Language : English
Default : Yes
Forced : No








МОИ РАЗДАЧИ НА ФЕНИКСе: ЗДЕСЬ




Это сообщение отредактировал SanSan48 - 10.11.2017 - 15:17


--------------------
"Спартак" - ЧЕМПИОН!!!

Скрыть подпись


EvgenySV
№2 Отправлено: 10.11.2017 - 19:28


Посетитель

Группа: Потребители
Регистрация: 30.12.2015
Сообщений: 187
Обитает:
Последний раз был:
cегодня в 14:22




Спасибо, архивы в порядке.
Top
SanSan48
№3 Отправлено: 10.11.2017 - 20:03


"Спартак" - ЧЕМПИОН!!!

Группа: Пользователи
Регистрация: 28.12.2009
Сообщений: 1823
Обитает:
Последний раз был:
cегодня в 09:36




Цитата
( EvgenySV @ 10.11.2017 - 19:28)
Спасибо, архивы в порядке.

EvgenySV, Благодарю за сообщение!

Приятного всем просмотра!


--------------------
"Спартак" - ЧЕМПИОН!!!

Скрыть подпись
Top
fenyclubby
№4 Отправлено: 12.11.2017 - 23:19


Гость

Группа: Новички
Регистрация: 1.02.2016
Сообщений: 1
Обитает:
Последний раз был:
12.11.2017 - 23:18




как мне снова получить ссылки?
Top
медикус
№5 Отправлено: 13.11.2017 - 11:51


Живёт здесь

Группа: Модераторы
Регистрация: 22.07.2008
Сообщений: 9233
Обитает:
Последний раз был:
cегодня в 15:09




fenyclubby, писать раздающему в личку и просить восстановить в очереди


--------------------
"Тихо шифером шурша,
Крыша едет не спеша..."
Не помню, кто написал, но дома с этим согласны yes.gif

ПРОЕКТ: В музей - без поводка

Скрыть подпись
Top
SanSan48
№6 Отправлено: 13.11.2017 - 19:09


"Спартак" - ЧЕМПИОН!!!

Группа: Пользователи
Регистрация: 28.12.2009
Сообщений: 1823
Обитает:
Последний раз был:
cегодня в 09:36




Цитата
( медикус @ 13.11.2017 - 11:51)
fenyclubby, писать раздающему в личку и просить восстановить в очереди

Уже вернул в очередь!

fenyclubby, можете скачивать.


--------------------
"Спартак" - ЧЕМПИОН!!!

Скрыть подпись
Top
1 человек просматривает эту тему (1 гость)
« Предыдущая тема | Отечественное кино | Следующая тема »


 



[Script Execution time: 0,0289]   [24 queries used]   [GZIP enabled]