Заходят многие - остаются лучшие!
Здравствуйте Гость ( Вход | Регистрация ) Выслать повторно письмо для активации
Вход
Ваше имя Пароль Забыли пароль?
Запомнить Вас?
Войти скрытым?



 Правила раздела Новые сообщения раздела  


 

 Биндюжник и Король [2 серии] (1989), Старое советское кино, экранизация
bornik
  №1 Отправлено: 26.10.2016 - 14:04


Воспоминания - это богатства старости.

Группа: Модераторы
Регистрация: 18.08.2008
Сообщений: 940
Обитает:
Последний раз был:
cегодня в 05:52




Биндюжник и Король [2 серии]



Предыдущая раздача 07.01.2007 г.
Предыдущая раздача 15.08.2007 г.
Предыдущая раздача 05.05.2011 г.

«Биндюжник и Король» - одна из самых оригинальных лент советского кинематографа – блестяще передаёт колоритный, романтически описанный Исааком Бабелем, мир старой Одессы. Виртуозные стихи Асара Эппеля, превосходная режиссура Владимира Аленикова, великолепная музыка Александра Журбина, блистательный актёрский состав – всё вместе создаёт заразительно весёлый и в то же время печальный фильм, воспевающий праздник жизни – прекрасный, несмотря ни на что.

Год выпуска: 1989
Жанр: Комедия, драма, музыкальный, экранизация
Выпущено: СССР, Киностудия им. М. Горького
Продолжительность: 02:41:12 (01:20:36 + 01:20:36)
Премьера (СССР): 09 сентября 1990 года

Режиссёр: Владимир Алеников

В ролях:
Армен Джигарханян … Мендель Крик
Зиновий Гердт … Арье-Лейб
Раиса Недашковская … Нехама, жена Менделя
Ирина Розанова … Маруся, возлюбленная Менделя Крика
Максим Леонидов … Бенцион Крик (Беня-Король), сын Менделя
Андрей Ургант … гусар Лева, сын Менделя
Татьяна Васильева … Двойра, дочь Менделя
Роман Карцев … Боярский, жених Двойры
Евгений Евстигнеев … Никифор
Николай Добрынин … Лева Кацап
Георгий Пицхелаури … Сеня Топун
Сергей Колесников (II) … Моня-Артиллерист
Вячеслав Гришечкин … молодой человек
Николай Олялин … Иван Пятирубель, кузнец
Григорий Лямпе … кантор Цвибак
Инна Ульянова … Мокеевна
Георгий Мартиросян … пристав
Владимир Долинский … полицейский
Виктор Павловский … ходатай по делам
Евгений Дегтяренко … хозяин трактира
Тамара Тана ( в титрах Тамара Карпович) … рыбачка с ребёнком
Мария Иткина … блажная певица
Иосиф Крапман … Семён
Жанна Токарская … рыбачка в трактире
Татьяна Морозова (III) … рыбачка в трактире
Маргарита Львова … рыбачка в трактире
Елизавета Приданцева … рыбачка в трактире
Наталья Громушкина … девочка-рыбачка
Ольга Семёнова (II) … рыбачка в трактире
Вадим Жук … мужик
Семён Гензер … официант
Олег Седов … официант
Юрий Шубаев … пианист
Марианна Кузнецова … кухарка
Филипп Алеников … мальчик в очках
Катя Медведева … дитя Молдаванки
Олег Медведев … дитя Молдаванки
Саша Шабашов … дитя Молдаванки
Илья Братман … дитя Молдаванки
Марина Голуб … барышня в борделе
Антонина Ли … барышня в борделе
Оксана Ремизова … барышня в борделе
Людмила Солоденко … барышня в борделе
Анжела Флаг … барышня в борделе
Анна Фроловцева … барышня в борделе
Виктория Зименкова (II) … барышня в борделе
Лина Родина … барышня в борделе
Леонид Александров … прихожанин
Игорь Вайль … прихожанин
Виктор Раду … эпизод (нет в титрах)

Продюсер: Зиновий Гензер
Сценарист: Асар Эппель, Владимир Алеников (уч.)
Оператор: Анатолий Гришко
Композитор: Александр Журбин
Художник: Марк Горелик

Во второй части (серии) при воспроизведении имеется глюк по звуку на 5 секунд с 01:15:03 по 01:15:08.
Этот дефект был и на исходнике DVD9.


Описание: Фильм по мотивам произведений Исаака Бабеля "Закат" и "Одесские рассказы".
Детский поэт и профессиональный переводчик Асар Эппель вместе с драматургом Владимиром Алениковым свели воедино два противоположных образа Бени Крика и, таким образом, перевели язык раннего романтика и позднего реалиста Бабеля на драматургическую основу. Если в 'Одесских рассказах' Беня - романтический разбойник, то уже в 'Закате' он - просто негодяй. И только Мендель, влюбленный в веселую и разбитную Марусю, остается все тем же - обманутым и брошенным собственными детьми, верующим во всемирную радость.


• В 1989 году было снято две экранизации «Одесских рассказов» Исаака Бабеля: «Биндюжник и Король» и «Искусство жить в Одессе». Роль Арье-Лейба в обоих фильмах сыграл Зиновий Гердт.














General
Complete name : C:\Cinema\BindyIKor\Биндюжник и Король 1 (1989) DVDRip.avi
Format : AVI
Format/Info : Audio Video Interleave
File size : 1.35 GiB
Duration : 1h 20mn
Overall bit rate : 2 397 Kbps
Writing application : FairUse Wizard - http://fairusewizard.com
Writing library : VirtualDub build 35491/release

Video
ID : 0
Format : MPEG-4 Visual
Format profile : Advanced Simple@L5
Format settings, BVOP : 2
Format settings, QPel : No
Format settings, GMC : No warppoints
Format settings, Matrix : Default (H.263)
Muxing mode : Packed bitstream
Codec ID : XVID
Codec ID/Hint : XviD
Duration : 1h 20mn
Bit rate : 2 003 Kbps
Width : 720 pixels
Height : 544 pixels
Display aspect ratio : 4:3
Frame rate : 25.000 fps
Color space : YUV
Chroma subsampling : 4:2:0
Bit depth : 8 bits
Scan type : Progressive
Compression mode : Lossy
Bits/(Pixel*Frame) : 0.205
Stream size : 1.13 GiB (84%)
Writing library : XviD 65

Audio
ID : 1
Format : AC-3
Format/Info : Audio Coding 3
Mode extension : CM (complete main)
Codec ID : 2000
Duration : 1h 20mn
Bit rate mode : Constant
Bit rate : 384 Kbps
Channel(s) : 6 channels
Channel positions : Front: L C R, Side: L R, LFE
Sampling rate : 48.0 KHz
Bit depth : 16 bits
Compression mode : Lossy
Stream size : 221 MiB (16%)
Alignment : Split accross interleaves
Interleave, duration : 40 ms (1.00 video frame)
Interleave, preload duration : 500 ms

=================================













General
Complete name : C:\Cinema\BindyIKor\Биндюжник и Король 2 (1989) DVDRip.avi
Format : AVI
Format/Info : Audio Video Interleave
File size : 1.35 GiB
Duration : 1h 20mn
Overall bit rate : 2 396 Kbps
Writing application : FairUse Wizard - http://fairusewizard.com
Writing library : VirtualDub build 35491/release

Video
ID : 0
Format : MPEG-4 Visual
Format profile : Advanced Simple@L5
Format settings, BVOP : 2
Format settings, QPel : No
Format settings, GMC : No warppoints
Format settings, Matrix : Default (H.263)
Muxing mode : Packed bitstream
Codec ID : XVID
Codec ID/Hint : XviD
Duration : 1h 20mn
Bit rate : 2 003 Kbps
Width : 720 pixels
Height : 544 pixels
Display aspect ratio : 4:3
Frame rate : 25.000 fps
Color space : YUV
Chroma subsampling : 4:2:0
Bit depth : 8 bits
Scan type : Progressive
Compression mode : Lossy
Bits/(Pixel*Frame) : 0.205
Stream size : 1.13 GiB (84%)
Writing library : XviD 65

Audio
ID : 1
Format : AC-3
Format/Info : Audio Coding 3
Mode extension : CM (complete main)
Codec ID : 2000
Duration : 1h 20mn
Bit rate mode : Constant
Bit rate : 384 Kbps
Channel(s) : 6 channels
Channel positions : Front: L C R, Side: L R, LFE
Sampling rate : 48.0 KHz
Bit depth : 16 bits
Compression mode : Lossy
Stream size : 221 MiB (16%)
Alignment : Split accross interleaves
Interleave, duration : 40 ms (1.00 video frame)
Interleave, preload duration : 500 ms

=================================

Исходником послужил релиз DVD9 от K.N.I.G.H.T, взятый с Рутрекера, за что ему БОЛЬШОЕ СПАСИБО!



Архивы созданы RAR-архиватором с добавлением 3% на восстановление и снабжены sfv-проверочником.
Просьба к первому скачавшему отписаться о сохранности архивов на источнике раздачи.

Раздача рассчитана на месяц.


ПРИЯТНОГО ВСЕМ ПРОСМОТРА !!!


Другое участие: K.N.I.G.H.T – предоставление исходной записи




--------------------
Безоблачная старость – это миф,
Поскольку наша память – ширь морская,
И к ночи начинается прилив,
Со дна обломки прошлого таская.
Игорь Губерман

Скрыть подпись


EvgenySV
№2 Отправлено: 26.10.2016 - 17:08


Посетитель

Группа: Потребители
Регистрация: 30.12.2015
Сообщений: 175
Обитает:
Последний раз был:
cегодня в 16:50




Спасибо, архивы в порядке.
Top
Мужик
№3 Отправлено: 26.10.2016 - 17:13


Посетитель

Группа: Потребители
Регистрация: 24.06.2008
Сообщений: 260
Обитает:
Последний раз был:
cегодня в 16:34




Архивы в порядке. Благодарствую!
Top
bornik
№4 Отправлено: 26.10.2016 - 18:56


Воспоминания - это богатства старости.

Группа: Модераторы
Регистрация: 18.08.2008
Сообщений: 940
Обитает:
Последний раз был:
cегодня в 05:52




Ребята, спасибо за добрую весть. happy_fly.gif


--------------------
Безоблачная старость – это миф,
Поскольку наша память – ширь морская,
И к ночи начинается прилив,
Со дна обломки прошлого таская.
Игорь Губерман

Скрыть подпись
Top
Mishel
№5 Отправлено: 27.10.2016 - 05:04


Гость

Группа: Новички
Регистрация: 19.07.2009
Сообщений: 8
Последний раз был:
1.09.2017 - 17:40




Спасибо за фильм!
Top
bornik
№6 Отправлено: 27.10.2016 - 08:26


Воспоминания - это богатства старости.

Группа: Модераторы
Регистрация: 18.08.2008
Сообщений: 940
Обитает:
Последний раз был:
cегодня в 05:52




Цитата
( Mishel @ 27.10.2016 - 05:04)
Спасибо за фильм!

Пожалуйста, Mishel. Смотрите и наслаждайтесь. wink2.gif


--------------------
Безоблачная старость – это миф,
Поскольку наша память – ширь морская,
И к ночи начинается прилив,
Со дна обломки прошлого таская.
Игорь Губерман

Скрыть подпись
Top
grival406
№7 Отправлено: 29.10.2016 - 08:19


Старожил

Группа: Потребители
Регистрация: 3.03.2016
Сообщений: 925
Обитает:
Последний раз был:
cегодня в 16:27




Большое спасибо!!!


--------------------
Я знаю только одного тирана, и это тихий голос совести.
Махатма Ганди

Скрыть подпись
Top
bornik
№8 Отправлено: 11.01.2017 - 19:42


Воспоминания - это богатства старости.

Группа: Модераторы
Регистрация: 18.08.2008
Сообщений: 940
Обитает:
Последний раз был:
cегодня в 05:52




Всем спасибо.
Очередь закрыта. Если есть желающие - пишите в ПМ. wink2.gif


--------------------
Безоблачная старость – это миф,
Поскольку наша память – ширь морская,
И к ночи начинается прилив,
Со дна обломки прошлого таская.
Игорь Губерман

Скрыть подпись
Top
1 человек просматривает эту тему (1 гость)
« Предыдущая тема | Отечественное кино | Следующая тема »


 



[Script Execution time: 0,0639]   [22 queries used]   [GZIP enabled]