Здравствуйте Гость ( Вход | Регистрация ) Выслать повторно письмо для активации
Вход
Ваше имя Пароль Забыли пароль?
Запомнить Вас?
Войти скрытым?



Новые сообщения раздела  

 

 Мой советский Новый год (2017) TVRip, Воспоминания Нового года
bornik
  №1 Отправлено: 5.01.2017 - 14:05


Воспоминания - это богатства старости.

Группа: Модераторы
Регистрация: 18.08.2008
Сообщений: 800
Обитает:
Последний раз был:
cегодня в 17:32




Мой советский Новый год (2017)



Предыдущая раздача "Моё cоветское Детство" (2014)
Предыдущая раздача "Моя cоветская Юность" (2015)
Предыдущая раздача "Mоя советская Молодость" (2016)

Год выпуска: 2017
Жанр: Документальный
Выпущено: Россия, Телекомпания - «5 КАНАЛ»
Продолжительность: 01:04:40

Режиссёр: Евгения Гончар
Сценарист: Алексей Васильев, Яна Радзиевская
Оператор: Виктор Гончар
Оригинальная музыка: Максим Алексеев

Ведущий: Михаил Боярский

Участники: Алла Пугачева, Гоша Куценко, Анна Ковальчук, Николай Басков, Никас Сафронов, Елена Яковлева, Денис Майданов, Владимир Шахрин, Дмитрий Харатьян, Вениамин Смехов и многие другие.

Описание: Вместе с Михаилом Сергеевичем Боярским и его звёздными друзьями зрители переживут Новый год по-советски: вспомнят как охотились за праздничными заказами и украшали стол дефицитом, впервые смотрели «Иронию судьбы, или с легким паром!» и подпевали эстрадным шлягерам в «Голубом огоньке». А все, кто уже не застал того времени, откроют для себя много нового из жизни родителей и нашей страны. Под «позывной» мотив заглавной песни проекта – «Три белых коня» – зрители перенесутся в прекрасное время, когда деревья были большими, друзей поздравляли открыткой, прилавки ломились от ирисок и карамели, под елкой ждали шоколадные шедевры – «Мишка на Севере» и «Грильяж», а на детских утренниках снежинками и зайчиками были наши родители и многие из нас.










General
Complete name : C:\Cinema\Моё советское...\Мой советский Новый год (2017)\MoSovNovGod.avi
Format : AVI
Format/Info : Audio Video Interleave
File size : 1.97 GiB
Duration : 2h 11mn
Overall bit rate : 2 141 Kbps
Writing application : VirtualDubMod 1.5.10.2 (build 2540/release)
Writing library : VirtualDub build 35491/release

Video
ID : 0
Format : MPEG-4 Visual
Format profile : Advanced Simple@L5
Format settings, BVOP : 2
Format settings, QPel : No
Format settings, GMC : No warppoints
Format settings, Matrix : Default (H.263)
Muxing mode : Packed bitstream
Codec ID : XVID
Codec ID/Hint : XviD
Duration : 2h 11mn
Bit rate : 2 003 Kbps
Width : 720 pixels
Height : 400 pixels
Display aspect ratio : 16:9
Frame rate : 25.000 fps
Color space : YUV
Chroma subsampling : 4:2:0
Bit depth : 8 bits
Scan type : Progressive
Compression mode : Lossy
Bits/(Pixel*Frame) : 0.278
Stream size : 1.85 GiB (94%)
Writing library : XviD 65

Audio
ID : 1
Format : MPEG Audio
Format version : Version 1
Format profile : Layer 3
Mode : Joint stereo
Mode extension : MS Stereo
Codec ID : 55
Codec ID/Hint : MP3
Duration : 2h 11mn
Bit rate mode : Constant
Bit rate : 128 Kbps
Channel(s) : 2 channels
Sampling rate : 48.0 KHz
Compression mode : Lossy
Stream size : 121 MiB (6%)
Alignment : Aligned on interleaves
Interleave, duration : 40 ms (1.00 video frame)
Interleave, preload duration : 504 ms
Writing library : LAME3.98r
Encoding settings : -m j -V 4 -q 3 -lowpass 17 -b 128


=================================

Исходником послужил релиз WEB-DL, найденный на просторах инета!

Архивы созданы RAR-архиватором с добавлением 3% на восстановление и снабжены sfv-проверочником.
Просьба к первому скачавшему отписаться о сохранности архивов на источнике раздачи.

Раздача рассчитана на месяц.

ПРИЯТНОГО ВСЕМ ПРОСМОТРА !!!




--------------------
Безоблачная старость – это миф,
Поскольку наша память – ширь морская,
И к ночи начинается прилив,
Со дна обломки прошлого таская.
Игорь Губерман

Скрыть подпись


Alevtina
№2 Отправлено: 5.01.2017 - 14:42


Время камни собирать...

Группа: Аксакалы
Регистрация: 12.02.2009
Сообщений: 5419
Обитает:
Последний раз был:
cегодня в 16:39




bornik, архив в полном порядке! Спасибо!!! zdarov1.gif ng20076fv3.gif merz.gif present.gif


--------------------

Прохожие, купите Доброту!
Лишь за улыбку! Разве ж это много!
Исполните заветную мечту…
И хоть одну из Заповедей Бога!
Снимите маски «гордых» и «крутых»
Купите, хоть немножечко, Терпенья.
И ощутите сердцем, хоть на миг,
Всю прелесть и восторг благодаренья!
Сегодня, АКЦИЯ на Совесть и Любовь!
Притормозите «хаммер» свой, иль «буммер»!
Купите! И волнуйте свою кровь!
От этого ещё никто не умер!


Скрыть подпись
Top
bornik
№3 Отправлено: 5.01.2017 - 14:51


Воспоминания - это богатства старости.

Группа: Модераторы
Регистрация: 18.08.2008
Сообщений: 800
Обитает:
Последний раз был:
cегодня в 17:32




Цитата
( Alevtina @ 5.01.2017 - 14:42)
bornik, архив в полном порядке! Спасибо!!! zdarov1.gif ng20076fv3.gif merz.gif present.gif

И Вам, Alevtina, спасибо за добрую весть. happy_fly.gif


--------------------
Безоблачная старость – это миф,
Поскольку наша память – ширь морская,
И к ночи начинается прилив,
Со дна обломки прошлого таская.
Игорь Губерман

Скрыть подпись
Top
1 человек просматривает эту тему (1 гость)
« Предыдущая тема | Летопись времён и идей | Следующая тема »


 



[Script Execution time: 0,0225]   [23 queries used]   [GZIP enabled]