Заходят многие - остаются лучшие!
Здравствуйте Гость ( Вход | Регистрация ) Выслать повторно письмо для активации
Вход
Ваше имя Пароль Забыли пароль?
Запомнить Вас?
Войти скрытым?



Новые сообщения раздела  

 

 Насекомое с другой планеты. Богомол / Alien incest. Praying mantis (2012), Телепутешествия - HD
bornik
  №1 Отправлено: 5.04.2017 - 17:04


Воспоминания - это богатства старости.

Группа: Модераторы
Регистрация: 18.08.2008
Сообщений: 901
Обитает:
Последний раз был:
cегодня в 02:40




Насекомое с другой планеты. Богомол / Alien incest. Praying mantis (2012)



«Насекомое с другой планеты. Богомол» - пожалуй, нет более кровожадных шестиногих разбойников чем богомолы. Богомол - насекомое, впечатляющее многих людей своим умением сражаться. Благодаря чему были созданы единоборства: кунг-фу богомол и бокс богомола. Повлиял он и на создание знаменитого мотоблока, который называется mantis (богомол в переводе с английского). Эти хищники нападают на насекомых больше себя ростом и с аппетитом поедают друг друга. Богомол уникален, тем что имеет мощные зубчатые клещи.

Название: Насекомое с другой планеты. Богомол
Оригинальное название: Alien incest. Praying mantis (Insect from another planet. Mantis)
Год выпуска: 2012
Жанр: Документальный, природа, фауна, флора
Выпущено: Австрия, Renate Marel, ZDF, Jack E. Smith, Discovery Channel, Andrew Solomon, DOCSTAR
Продолжительность: 00:48:50
Субтитры: Русские (мои)

Режиссёр: Курт Мюндл / Kurt Mündl

Программа озвучена студией "1•ТВЧ"

Описание: Есть существо, взглянув на которое можно подумать, что это инопланетное создание. Да и выглядит оно так, будто прилетело к нам из далёкой галактики. Даже научные фантасты часто вдохновляются этим созданием. У него множество обличий и одно удивительней другого. Речь о богомоле. Присмотритесь и скажите: уверены ли вы, что это насекомое с нашей планеты? Богомолы живут и тропических лесах, и в засушливых районах. Некоторые виды умудряются обитать в пустынях. Но всем им нужна растительность, а ещё богомолы слишком раздражительны.







General
Complete name : C:\DVD documental fimls\Богомол\Насекомое с другой планеты. Богомол (2010).avi
Format : AVI
Format/Info : Audio Video Interleave
File size : 839 MiB
Duration : 48mn 50s
Overall bit rate : 2 403 Kbps
Writing application : VirtualDubMod 1.5.10.2 (build 2540/release)
Writing library : VirtualDubMod build 2540/release

Video
ID : 0
Format : MPEG-4 Visual
Format profile : Advanced Simple@L5
Format settings, BVOP : 2
Format settings, QPel : No
Format settings, GMC : No warppoints
Format settings, Matrix : Default (H.263)
Muxing mode : Packed bitstream
Codec ID : XVID
Codec ID/Hint : XviD
Duration : 48mn 50s
Bit rate : 2 201 Kbps
Width : 720 pixels
Height : 400 pixels
Display aspect ratio : 16:9
Frame rate : 25.000 fps
Color space : YUV
Chroma subsampling : 4:2:0
Bit depth : 8 bits
Scan type : Progressive
Compression mode : Lossy
Bits/(Pixel*Frame) : 0.306
Stream size : 769 MiB (92%)
Writing library : XviD 65

Audio
ID : 1
Format : MPEG Audio
Format version : Version 1
Format profile : Layer 3
Mode : Joint stereo
Mode extension : MS Stereo
Codec ID : 55
Codec ID/Hint : MP3
Duration : 48mn 50s
Bit rate mode : Constant
Bit rate : 192 Kbps
Channel(s) : 2 channels
Sampling rate : 48.0 KHz
Compression mode : Lossy
Stream size : 67.1 MiB (8%)
Alignment : Aligned on interleaves
Interleave, duration : 40 ms (1.00 video frame)
Interleave, preload duration : 504 ms
Writing library : LAME3.98r
Encoding settings : -m j -V 4 -q 3 -lowpass 18.6 -b 192


=================================

Исходником послужил релиз HDTV, найденный на просторах инета!

Архивы созданы RAR-архиватором с добавлением 3% на восстановление и снабжены sfv-проверочником.
Просьба к первому скачавшему отписаться о сохранности архивов на источнике раздачи.

Раздача рассчитана на месяц.

ПРИЯТНОГО ВСЕМ ПРОСМОТРА !!!




--------------------
Безоблачная старость – это миф,
Поскольку наша память – ширь морская,
И к ночи начинается прилив,
Со дна обломки прошлого таская.
Игорь Губерман

Скрыть подпись


Nadejdaenergia
№2 Отправлено: 5.04.2017 - 17:31


Когда всё плохое уходит, остаётся только хорошее.

Группа: Модераторы
Регистрация: 21.03.2012
Сообщений: 5280
Обитает:
Последний раз был:
позавчера в 18:12




Архивы в порядке. Благодарю за интересные фильмы о животном мире.
Top
bornik
№3 Отправлено: 5.04.2017 - 18:35


Воспоминания - это богатства старости.

Группа: Модераторы
Регистрация: 18.08.2008
Сообщений: 901
Обитает:
Последний раз был:
cегодня в 02:40




Цитата
( Nadejdaenergia @ 5.04.2017 - 17:31)
Архивы в порядке. Благодарю за интересные фильмы о животном мире.

И Вам, Nadejdaenergia, спасибо за добрую весть. happy_fly.gif


--------------------
Безоблачная старость – это миф,
Поскольку наша память – ширь морская,
И к ночи начинается прилив,
Со дна обломки прошлого таская.
Игорь Губерман

Скрыть подпись
Top
1 человек просматривает эту тему (1 гость)
« Предыдущая тема | Мир вокруг нас | Следующая тема »


 



[Script Execution time: 0,0273]   [23 queries used]   [GZIP enabled]