Заходят многие - остаются лучшие!
Здравствуйте Гость ( Вход | Регистрация ) Выслать повторно письмо для активации
Вход
Ваше имя Пароль Забыли пароль?
Запомнить Вас?
Войти скрытым?



Новые сообщения раздела  

 

 Игра с огнем / Le Jeu avec le feu / Giochi di fuoco (1975), Драма,криминал,эротика;Реж.-А.Роб-Грийе;Роли-Ф.Нуаре,Ж.Л.Трентиньян
SanSan48
  №1 Отправлено: 14.12.2014 - 18:41


"Спартак" - ЧЕМПИОН!!!

Группа: Пользователи
Регистрация: 28.12.2009
Сообщений: 1964
Обитает:
Последний раз был:
cегодня в 19:09




Игра с огнем / Le Jeu avec le feu / Giochi di fuoco (1975) Полная версия



Предыдущие раздачи:
09.09.2008 (DVDrip) (Цензурированная версия продолжительностью 01:41:07)
06.05.2008 (TVrip) (Полная версия продолжительностью 01:47:47)

Название: Игра с огнем
Оригинальное название: Le Jeu avec le feu / Giochi di fuoco / Playng With Fire
Жанр: Драма, криминал, эротика
Выпущено: Франция, Италия, Arcadie Productions, Madeleine Films, Cinecompany
Год выпуска: 1975
Премьера (мир): 19 February 1975 (France)
Сценаристы: Ален Роб-Грийе / Alain Robbe-Grillet
Оператор: Ив Лафайе / Yves Lafaye
Художники: Хилтон МакКоннико / Hilton McConnico, Жорж Бриль / Georges Bril
Монтажёр: Боб Вэйд / Bob Wade

Режиссер: Ален Роб-Грийе / Alain Robbe-Grillet

В ролях:
Жан-Луи Трентиньян / Jean-Louis Trintignant ... Franz / Francis
Филипп Нуаре / Philippe Noiret ... Georges de Saxe / Ses doubles
Анисе Альвина / Anicée Alvina ... Carolina de Saxe
Сильвия Кристель / Sylvia Kristel ... Diana Van Den Berg
Агостина Белли / Agostina Belli ... Maria, la servande des Saxe
Серж Маркан / Serge Marquand ... Mathias
Шарль Мийо / Charles Millot ... Un ravisseur
Вернон Добчефф / Vernon Dobtcheff ... Un messager
Жак Сейлер / Jacques Seiler ... Le chauffeur de taxi / Le domestique d'Erica / Le prêtre
Мишель Берто / Michel Berto ... L'adjoint du commissaire
Кристин Буассон / Christine Boisson ... Christina, la fille dans la malle / Desdémone
Марк Мацца / Marc Mazza ... Un messager
Жак Дониоль-Валькроз / Jacques Doniol-Valcroze (в титрах: J. Doniol-Valcloze) ... Le commissaire Laurent
Натали Зейгер / Nathalie Zeiger ... Tania, la fille aux chiens
Жоэлль Койе / Joëlle Coeur ... La mariée

Описание: Богатый банкир Жорж Де Сакс опасается, что его дочь Каролину могут похитить с целью выкупа. Частный детектив советует ему отправить ее к Эрике. Позже выясняется, что Эрика содержит бордель, где девушки из богатых семей используются для услад богатых клиентов - сексуальных маньяков и извращенцев...
Режиссер фильма Ален Роб-Грийе большей частью известен как писатель, но и его работы в кино занимают видное место в истории кинематографа. Литература и кино в творчестве Роб-Грийе словно переходят друг в друга.

Дополнительная информация:

Автор рипа: pmv

Исходник найден в сети.

Большое спасибо за:
- русскую звуковую дорожку - bmuratov
- синхронизацию звука – pmv

IMDb = 6,6/10 from 144 users - http://imdb.com/title/tt0073203/
Кинопоиск = 5.871 (105) - http://www.kinopoisk.ru/film/57979/

В данной раздаче представлена полная французская версия продолжительностью 01:48:00, содержащая вырезанные в итальянской версии эпизоды.
Продолжительность итальянской версии - 01:41:07


ВНИМАНИЕ!!! РИП ФОРМАТА mkv (кодек H.264) ВОСПРОИЗВОДИТСЯ НЕ НА ВСЕХ БЫТОВЫХ ВИДЕОПЛЕЕРАХ!!!

Качество видео: DVDRip-AVC
Формат видео: MKV
Перевод: Профессиональный (двухголосый закадровый) - ОРТ-Видео
Оригинальная аудиодорожка: французский
Видео: AVC (H.264), 720@1024x440 (2.35:1), 25.000 fps, 1600 Kbps
Аудио #1: AC3, 48 Khz, Stereo (2 ch), 160 Kbps, CBR - русский
Аудио #2: AC3, 48 Khz, Stereo (2 ch), 160 Kbps, CBR - французский



General
Unique ID : 173103281963427813627357966712386900554 (0x823A7ABB4D67AF9FB95592A98C48524A)
Complete name : D:\torrents\le.jeu.avec.le.feu (1975, rus+fra).mkv
Format : Matroska
Format version : Version 4 / Version 2
File size : 1.45 GiB
Duration : 1h 48mn
Overall bit rate : 1 922 Kbps
Encoded date : UTC 2014-12-14 10:52:31
Writing application : mkvmerge v7.4.0 ('Circles') 64bit built on Dec 12 2014 12:19:56
Writing library : libebml v1.3.0 + libmatroska v1.4.1
DURATION : 01:47:59.296000000
NUMBER_OF_FRAMES : 202478
NUMBER_OF_BYTES : 129585920
_STATISTICS_WRITING_APP : mkvmerge v7.4.0 ('Circles') 64bit built on Dec 12 2014 12:19:56
_STATISTICS_WRITING_DATE_UTC : 2014-12-14 10:52:31
_STATISTICS_TAGS : BPS DURATION NUMBER_OF_FRAMES NUMBER_OF_BYTES

Video
ID : 1
Format : AVC
Format/Info : Advanced Video Codec
Format profile : High@L3.2
Format settings, CABAC : Yes
Format settings, ReFrames : 16 frames
Codec ID : V_MPEG4/ISO/AVC
Duration : 1h 48mn
Bit rate : 1 600 Kbps
Width : 720@1024 pixels
Height : 440 pixels
Display aspect ratio : 2.35:1
Original display aspect ratio : 1.636
Frame rate mode : Constant
Frame rate : 25.000 fps
Color space : YUV
Chroma subsampling : 4:2:0
Bit depth : 8 bits
Scan type : Progressive
Bits/(Pixel*Frame) : 0.202
Stream size : 1.18 GiB (81%)
Writing library : x264 core 130 r2273 b3065e6
Encoding settings : cabac=1 / ref=16 / deblock=1:0:0 / analyse=0x3:0x133 / me=umh / subme=10 / psy=1 / psy_rd=1.00:0.00 / mixed_ref=1 / me_range=24 / chroma_me=1 / trellis=2 / 8x8dct=1 / cqm=0 / deadzone=21,11 / fast_pskip=1 / chroma_qp_offset=-2 / threads=18 / lookahead_threads=3 / sliced_threads=0 / nr=0 / decimate=1 / interlaced=0 / bluray_compat=0 / constrained_intra=0 / bframes=8 / b_pyramid=2 / b_adapt=2 / b_bias=0 / direct=3 / weightb=1 / open_gop=0 / weightp=2 / keyint=250 / keyint_min=25 / scenecut=40 / intra_refresh=0 / rc_lookahead=60 / rc=2pass / mbtree=1 / bitrate=1600 / ratetol=1.0 / qcomp=0.60 / qpmin=0 / qpmax=69 / qpstep=4 / cplxblur=20.0 / qblur=0.5 / ip_ratio=1.40 / aq=1:1.00
Default : Yes
Forced : No

Audio #1
ID : 2
Format : AC-3
Format/Info : Audio Coding 3
Mode extension : CM (complete main)
Format settings, Endianness : Big
Codec ID : A_AC3
Duration : 1h 48mn
Bit rate mode : Constant
Bit rate : 160 Kbps
Channel(s) : 2 channels
Channel positions : Front: L R
Sampling rate : 48.0 KHz
Bit depth : 16 bits
Compression mode : Lossy
Delay relative to video : 500ms
Stream size : 124 MiB (8%)
Default : Yes
Forced : No

Audio #2
ID : 3
Format : AC-3
Format/Info : Audio Coding 3
Mode extension : CM (complete main)
Format settings, Endianness : Big
Codec ID : A_AC3
Duration : 1h 48mn
Bit rate mode : Constant
Bit rate : 160 Kbps
Channel(s) : 2 channels
Channel positions : Front: L R
Sampling rate : 48.0 KHz
Bit depth : 16 bits
Compression mode : Lossy
Delay relative to video : 500ms
Stream size : 124 MiB (8%)
Default : No
Forced : No










Это сообщение отредактировал SanSan48 - 15.12.2014 - 18:09


--------------------
"Спартак" - ЧЕМПИОН!!!

Скрыть подпись


AstroD
№2 Отправлено: 14.12.2014 - 20:23


Живёт здесь

Группа: Потребители
Регистрация: 13.01.2010
Сообщений: 1700
Обитает:
Последний раз был:
19.12.2017 - 23:29




спасибо большое
все в порядке!
Top
SanSan48
№3 Отправлено: 14.12.2014 - 20:29


"Спартак" - ЧЕМПИОН!!!

Группа: Пользователи
Регистрация: 28.12.2009
Сообщений: 1964
Обитает:
Последний раз был:
cегодня в 19:09




Цитата
( AstroD @ 14.12.2014 - 20:23)
спасибо большое
все в порядке!

AstroD, Благодарю за сообщение!

Приятного просмотра!


--------------------
"Спартак" - ЧЕМПИОН!!!

Скрыть подпись
Top
wider2
№4 Отправлено: 15.12.2014 - 08:40


Живёт здесь

Группа: Потребители
Регистрация: 17.10.2006
Сообщений: 1144
Обитает:
Последний раз был:
cегодня в 17:37




да уж
кино как зеркало общества и местной культуры
однако не врет....
Top
1 человек просматривает эту тему (1 гость)
« Предыдущая тема | Элитарное кино | Следующая тема »


 



[Script Execution time: 0,0388]   [24 queries used]   [GZIP enabled]