Заходят многие - остаются лучшие!
Здравствуйте Гость ( Вход | Регистрация ) Выслать повторно письмо для активации
Вход
Ваше имя Пароль Забыли пароль?
Запомнить Вас?
Войти скрытым?



Новые сообщения раздела  

 

 Гангстеры дикой природы. Слоны / Gangland Killers. Elephant Gangs (2014), Animal Family HD
bornik
  №1 Отправлено: 11.12.2017 - 16:12


Воспоминания - это богатства старости.

Группа: Модераторы
Регистрация: 18.08.2008
Сообщений: 1036
Обитает:
Последний раз был:
21.05.2019 - 18:04




Гангстеры дикой природы. Слоны / Gangland Killers. Elephant Gangs (2014)



Фильм 1 - Гангстеры дикой природы. Стада бегемотов
Фильм 3 - Гангстеры дикой природы. Мангусты
Фильм 4 - Гангстеры дикой природы. Дикие собаки
Фильм 5 - Гангстеры дикой природы. Буйволы
Фильм 6 - Гангстеры дикой природы. Гиены

«Гангстеры дикой природы. Слоны» - для многих животных, живущих на бескрайних просторах Африки, существует тонкая грань между жизнью и смертью. Множество хищников, засушливый сезон, недостаток воды и пищи делают жизнь обитателей саванны невыносимо трудной и смертельно опасной. Секрет выживания и процветания отдельных видов кроется в объединённых группах и коллективной охоте, будь то целеустремлённое стадо, сплочённая стая или безжалостная банда.

Название: Гангстеры дикой природы. Слоны
Оригинальное название: Gangland Killers. Elephant Gangs
Год выпуска: 2014
Жанр: Документальный, природа, фауна, флора
Выпущено: ЮАР , AquaVision TV Productions
Продолжительность: 00:44:05
Субтитры: Русские (мои)

Режиссёр: Питер Ламберти / Peter Lamberti

Программа озвучена студией "АРК•ТВ"
Текст читает: Денис Некрасов

Описание: Слоны - крупнейшие наземные млекопитающие планеты. Они величественны, ласковы, преданны семье. Их уважают все... кроме львов и природы. Им не хватает воды и пищи. Поэтому группе слонов приходится мигрировать. Но они не могут оставить своих любимых. Будет ли их преданность стоить им жизни?...








General
Complete name : C:\DVD documental fimls\Гангстеры дикой природы\2. Слоны (2014).avi
Format : AVI
Format/Info : Audio Video Interleave
File size : 695 MiB
Duration : 44mn 5s
Overall bit rate : 2 204 Kbps
Writing application : VirtualDubMod 1.5.10.2 (build 2540/release)
Writing library : VirtualDubMod build 2540/release

Video
ID : 0
Format : MPEG-4 Visual
Format profile : Advanced Simple@L5
Format settings, BVOP : 2
Format settings, QPel : No
Format settings, GMC : No warppoints
Format settings, Matrix : Default (H.263)
Muxing mode : Packed bitstream
Codec ID : XVID
Codec ID/Hint : XviD
Duration : 44mn 5s
Bit rate : 2 002 Kbps
Width : 720 pixels
Height : 400 pixels
Display aspect ratio : 16:9
Frame rate : 25.000 fps
Color space : YUV
Chroma subsampling : 4:2:0
Bit depth : 8 bits
Scan type : Progressive
Compression mode : Lossy
Bits/(Pixel*Frame) : 0.278
Stream size : 631 MiB (91%)
Writing library : XviD 65

Audio
ID : 1
Format : MPEG Audio
Format version : Version 1
Format profile : Layer 3
Mode : Joint stereo
Mode extension : MS Stereo
Codec ID : 55
Codec ID/Hint : MP3
Duration : 44mn 5s
Bit rate mode : Constant
Bit rate : 192 Kbps
Channel(s) : 2 channels
Sampling rate : 48.0 KHz
Compression mode : Lossy
Stream size : 60.6 MiB (9%)
Alignment : Aligned on interleaves
Interleave, duration : 40 ms (1.00 video frame)
Interleave, preload duration : 504 ms
Writing library : LAME3.98r
Encoding settings : -m j -V 4 -q 3 -lowpass 18.6 -b 192


Записались на автоматическое включение в очередь: Alevtina, Nadejdaenergia, baziss, grival406, медикус

Если вы хотите, чтобы вас автоматически ставили в очередь на следующие фильмы о природе,
- сообщите об этом в теме последней раздачи.


=================================

Исходником послужил релиз HDTV, найденный на просторах инета!

Архивы созданы RAR-архиватором с добавлением 3% на восстановление и снабжены sfv-проверочником.
Просьба к первому скачавшему отписаться о сохранности архивов на источнике раздачи.


ПРИЯТНОГО ВСЕМ ПРОСМОТРА !!!




--------------------
Безоблачная старость – это миф,
Поскольку наша память – ширь морская,
И к ночи начинается прилив,
Со дна обломки прошлого таская.
Игорь Губерман

Скрыть подпись


sobinov
№2 Отправлено: 11.12.2017 - 16:53


Живёт здесь

Группа: Потребители
Регистрация: 18.07.2009
Сообщений: 3401
Обитает:
Последний раз был:
17.09.2019 - 13:00




Все скачалось и собралось. Спасибо!
Top
bornik
№3 Отправлено: 11.12.2017 - 17:19


Воспоминания - это богатства старости.

Группа: Модераторы
Регистрация: 18.08.2008
Сообщений: 1036
Обитает:
Последний раз был:
21.05.2019 - 18:04




Цитата
( sobinov @ 11.12.2017 - 16:53)
Все скачалось и собралось. Спасибо!

И Вам, sobinov, спасибо за добрую весть. happy_fly.gif


--------------------
Безоблачная старость – это миф,
Поскольку наша память – ширь морская,
И к ночи начинается прилив,
Со дна обломки прошлого таская.
Игорь Губерман

Скрыть подпись
Top
1 человек просматривает эту тему (1 гость)
« Предыдущая тема | Мир вокруг нас | Следующая тема »


 



[Script Execution time: 0,0670]   [23 queries used]   [GZIP enabled]