Заходят многие - остаются лучшие!
Здравствуйте Гость ( Вход | Регистрация ) Выслать повторно письмо для активации
Вход
Ваше имя Пароль Забыли пароль?
Запомнить Вас?
Войти скрытым?



 Правила раздела Новые сообщения раздела  


 

 Языческая мадонна / A Pogány Madonna (1980), Комедия,криминал;Реж-Д.Месарош;Роли-И.Буйтор,А.Керн,Л.Банхади
SanSan48
  №1 Отправлено: 7.02.2019 - 09:28


"Спартак" - ЧЕМПИОН!!!

Группа: Пользователи
Регистрация: 28.12.2009
Сообщений: 2098
Обитает:
Последний раз был:
cегодня в 07:41




Языческая мадонна / A Pogány Madonna (1980)



Предыдущие раздачи
3.07.2018 (DVDrip)
28.06.2018 (DVDrip) (Архив)
4.04.2015 (DVDrip)
29.04.2013 (DVDrip)
19.03.2007 (DVDrip) (Перераздача)
15.12.2006 (DVDrip)

Жанр: Комедия, криминал
Выпущено: Венгрия, MAFILM Budapest Filmstúdiói
Год выпуска: 1980
Премьера (мир): 28 мая 1981 (Венгрия), 11 июня 1982 (Германия (ГДР))
Премьера (СССР): 14 марта 1983
Сценаристы: Дьюла Месарош / Gyula Mészáros, Иштван Буйтор / István Bujtor
Оператор: Иштван Хильдебранд / István Hildebrand
Композитор: Дьёрдь Альдобойи Надь / György Aldobólyi Nagy
Художники: Ласло Дуба / László Duba, Терез Д. Форго / Teréz D. Forgó, Миклош Мольнар / Miklós Molnár
Монтажёр: Хайнал Сельё / Hajnal Sellõ

Режиссёр: Дьюла Месарош / Gyula Mészáros

В ролях:
Иштван Буйтор / István Bujtor ... Ötvös Csöpi - дублирует Валерий Кравченко
Андраш Керн / András Kern ... Dr. Kardos Tibor - дублирует Александр Липов
Ласло Банхиди / László Bánhidi ... Matuska, a fagylaltos - дублирует Анатолий Столбов
Мария Гоор Надь / Mária Goór Nagy ... Csík Zsuzsa - дублирует Жанна Сухопольская
Ференц Каллаи / Ferenc Kállai ... Csík István - дублирует Игорь Дмитриев
Габи Палок / Gabi Pálok ... Bence, Matuska unokája - дублирует Елена Павловская
Петер Бенкё / Péter Benkö ... Szemere nyomozó
Иштван Ковач / István Kovács ... Soltész Gábor - дублирует Олег Ефремов
Миклош Бенедек / Miklós Benedek ... Mr. P. Smith
Ференц Зенте / Ferenc Zenthe ... Záray százados
Юдит Хернади / Judit Hernádi ... Vályiné
Йожеф Ланг / József Láng ... Bárdos
Ференц Немети / Ferenc Némethy ... Apát
Миклош Тольнаи / Miklós Tolnay ... Somos tisztelendõ
Берталан Шольти / Bertalan Solti ... Siminszki

Описание: Из музея, находящегося в маленьком городке на Балатоне, была похищена уникальная статуя античной богини плодородия Деметры, известная под названием «Языческая мадонна». При этом тяжело ранен служитель музея. Дело о похищении бесценной музейной статуэтки из чистого золота поручили расследовать тогда еще молодому и неопытному следователю Кардошу. Преступники могли бы спать спокойно, но за дело берется и находчивый лейтенант Капелька…

Дополнительная информация:
Релиз:

Исходник найден в сети.

Автор рипа: pmv

Большое спасибо за:
- аудиодорожку с советским дубляжом и вставками одноголоски - dvdbox
- синхронизацию аудиодорожки - pmv

* Фильм дублирован на киностудии «Ленфильм» в 1982 году и выпущен в прокат с 14 марта 1983 года.
Режиcсер дубляжа: Игорь Мушкатин
Звукооператор дубляжа: Гарри Беленький
Автор литературного перевода: Е.Родионова
Редактор: Г.Чаплина
Роли дублировали: Валерий Кравченко, Евгений Леонов-Гладышев, Елена Павловская, Жанна Сухопольская, Александр Липов, Анатолий Столбов, Игорь Дмитриев, Олег Ефремов

* В пропущенных фрагментах, где отсутствует советский дубляж, сделаны вставки из одноголосой озвучки Gadyukko.

* В 2011 году фильм был отреставрирован Венгерским национальным цифровым архивом.

IMDb = 7,7/10 (1 138) - https://www.imdb.com/title/tt0081349/
Кинопоиск = 6.826 (178) - https://www.kinopoisk.ru/film/75471/

ВНИМАНИЕ!!! РИП ФОРМАТА mkv (кодек H.264) ВОСПРОИЗВОДИТСЯ НЕ НА ВСЕХ БЫТОВЫХ ВИДЕОПЛЕЕРАХ!!!

Параметры файла:
Название: A Pogany Madonna (1980, rus_dub+hun).mkv
Качество видео: WEB-DLRip-AVC
Формат видео: MKV
Размер: 1,46 ГБ (1 572 916 835 байт)
Продолжительность: 01:38:10
Перевод: Профессиональный (дублированный) – к/с «Ленфильм»
Оригинальная аудиодорожка: венгерский
Видео: AVC (H264), 864x648 (4:3), 25 fps, 1750 kbps, 0.125 Bits/Pixel
Аудио #1: AC3, 48 KHz, stereo (2 ch), 192 kbps – советский дубляж
Аудио #2: AC3, 48 KHz, stereo (2 ch), 192 kbps – венгерский



General
Unique ID : 281398875580635563804525946869349307449 (0xD3B373BB7FDB58CDD232AD77293B5439)
Complete name : D:\torrents\A Pogany Madonna (1980, rus_dub+hun).mkv
Format : Matroska
Format version : Version 4 / Version 2
File size : 1.46 GiB
Duration : 1 h 38 min
Overall bit rate : 2 136 kb/s
Encoded date : UTC 2019-02-04 14:05:31
Writing application : mkvmerge v30.1.0 ('Forever And More') 64-bit
Writing library : libebml v1.3.6 + libmatroska v1.4.9

Video
ID : 1
Format : AVC
Format/Info : Advanced Video Codec
Format profile : High@L4.1
Format settings, CABAC : Yes
Format settings, RefFrames : 14 frames
Codec ID : V_MPEG4/ISO/AVC
Duration : 1 h 38 min
Bit rate : 1 750 kb/s
Width : 864 pixels
Height : 648 pixels
Display aspect ratio : 4:3
Frame rate mode : Constant
Frame rate : 25.000 FPS
Color space : YUV
Chroma subsampling : 4:2:0
Bit depth : 8 bits
Scan type : Progressive
Bits/(Pixel*Frame) : 0.125
Stream size : 1.20 GiB (82%)
Writing library : x264 core 146 r2538 121396c
Encoding settings : cabac=1 / ref=14 / deblock=1:0:0 / analyse=0x3:0x133 / me=umh / subme=10 / psy=1 / psy_rd=1.00:0.00 / mixed_ref=1 / me_range=24 / chroma_me=1 / trellis=2 / 8x8dct=1 / cqm=0 / deadzone=21,11 / fast_pskip=1 / chroma_qp_offset=-2 / threads=48 / lookahead_threads=5 / sliced_threads=0 / nr=0 / decimate=1 / interlaced=0 / bluray_compat=0 / constrained_intra=0 / bframes=8 / b_pyramid=2 / b_adapt=2 / b_bias=0 / direct=3 / weightb=1 / open_gop=0 / weightp=2 / keyint=250 / keyint_min=25 / scenecut=40 / intra_refresh=0 / rc_lookahead=60 / rc=2pass / mbtree=1 / bitrate=1750 / ratetol=1.0 / qcomp=0.60 / qpmin=0 / qpmax=69 / qpstep=4 / cplxblur=20.0 / qblur=0.5 / ip_ratio=1.40 / aq=1:1.00
Language : Hungarian
Default : Yes
Forced : No

Audio #1
ID : 2
Format : AC-3
Format/Info : Audio Coding 3
Format settings, Endianness : Big
Codec ID : A_AC3
Duration : 1 h 38 min
Bit rate mode : Constant
Bit rate : 192 kb/s
Channel(s) : 2 channels
Channel positions : Front: L R
Sampling rate : 48.0 kHz
Frame rate : 31.250 FPS (1536 SPF)
Bit depth : 16 bits
Compression mode : Lossy
Stream size : 135 MiB (9%)
Language : Russian
Service kind : Complete Main
Default : Yes
Forced : No

Audio #2
ID : 3
Format : AC-3
Format/Info : Audio Coding 3
Format settings, Endianness : Big
Codec ID : A_AC3
Duration : 1 h 38 min
Bit rate mode : Constant
Bit rate : 192 kb/s
Channel(s) : 2 channels
Channel positions : Front: L R
Sampling rate : 48.0 kHz
Frame rate : 31.250 FPS (1536 SPF)
Bit depth : 16 bits
Compression mode : Lossy
Stream size : 135 MiB (9%)
Language : Hungarian
Service kind : Complete Main
Default : No
Forced : No








МОИ РАЗДАЧИ НА ФЕНИКСе: ЗДЕСЬ




Это сообщение отредактировал SanSan48 - 7.02.2019 - 09:30


--------------------
"Спартак" - ЧЕМПИОН!!!

Скрыть подпись


vjub58
№2 Отправлено: 7.02.2019 - 11:46


Практикующий эсквайр

Группа: Аксакалы
Регистрация: 6.12.2005
Сообщений: 5271
Обитает:
Последний раз был:
cегодня в 01:20




Спасибо, все ОК. pozdrav_buket.gif
Top
YtelfxybR
№3 Отправлено: 7.02.2019 - 15:15


Посетитель

Группа: Потребители
Регистрация: 27.10.2010
Сообщений: 123
Обитает:
Последний раз был:
cегодня в 05:58




Всё отлично распаковалось.
Спасибо!
Top
SanSan48
№4 Отправлено: 7.02.2019 - 15:34


"Спартак" - ЧЕМПИОН!!!

Группа: Пользователи
Регистрация: 28.12.2009
Сообщений: 2098
Обитает:
Последний раз был:
cегодня в 07:41




Цитата
( YtelfxybR @ 7.02.2019 - 15:15)
Всё отлично распаковалось.
Спасибо!

YtelfxybR, и Вам спасибо на добром слове!


--------------------
"Спартак" - ЧЕМПИОН!!!

Скрыть подпись
Top
pushistiy
№5 Отправлено: 7.02.2019 - 17:33


Живёт здесь

Группа: Потребители
Регистрация: 8.12.2013
Сообщений: 1062
Последний раз был:
вчера в 19:11




Цитата
SanSan48 @ 7.02.2019 - 09:28
Режиссёр: Дьюла Месарош / Gyula Mészáros
\
...и не только : ещё и Иштван Буйтор wink2.gif
А вообще, это первая часть тетралогии : 2-я - "Без паники, майор Кардош !", 1982 ; 3-я - "Заколдованный доллар", 1985 ; 4-я - "Фальшивая кукла", 1991. uzhas.gif
P.S. Вот неплохо бы их всех СЮДА ! Ludi_girl3.gif
P.P.S. ДЛя полного благообразия ! pozelui.gif


Это сообщение отредактировал pushistiy - 7.02.2019 - 17:36
Top
evdokim63
№6 Отправлено: 9.06.2019 - 22:21


Завсегдатай

Группа: Потребители
Регистрация: 9.05.2015
Сообщений: 437
Обитает:
Последний раз был:
cегодня в 08:50




всё ок. спасибо
Top
1 человек просматривает эту тему (1 гость)
« Предыдущая тема | Советский дубляж | Следующая тема »


 



[Script Execution time: 0,0553]   [24 queries used]   [GZIP enabled]