Заходят многие - остаются лучшие!
Здравствуйте Гость ( Вход | Регистрация ) Выслать повторно письмо для активации
Вход
Ваше имя Пароль Забыли пароль?
Запомнить Вас?
Войти скрытым?



 Правила раздела Новые сообщения раздела  


 

 Дон Сезар де Базан / Don Cesare di Bazan (1942)
surzhoks
  №1 Отправлено: 7.01.2018 - 23:01


Живёт здесь

Группа: Аксакалы
Регистрация: 17.03.2008
Сообщений: 1095
Обитает:
Последний раз был:
16.10.2018 - 20:40




Дон Сезар де Базан / Don Cesare di Bazan


Страна: Италия
Студия: Artisti Associati, Elica Film
Жанр: приключения, драма
Год выпуска: 1942
Продолжительность: 01:12:44
Режиссер: Риккардо Фреда / Riccardo Freda
Сценаристы: Серджо Амидеи / Sergio Amidei, Виталиано Бранкати / Vitaliano Brancati, Риккардо Фреда / Riccardo Freda, Чезаре Дзаваттини / Cesare Zavattini
Композитор: Франко Дакиарди / Franco D'Achiardi

В ролях:Джино Черви / Gino Cervi ... Don Cesare di Bazan
Аннелиза Улиг / Anneliese Uhlig ... Renée Dumas
Энрико Глори / Enrico Glori ... Il visconte di Beaumont
Паоло Стоппа / Paolo Stoppa ... Sancho
Энцо Билиотти / Enzo Biliotti ... Filippo IV
Джованни Грассо / Giovanni Grasso ... Don José di Nogueira
Карло Дузе / Carlo Duse ... Il 'Corvo', il messagero del visconte
Антонио Мариетти / Antonio Marietti ... Il giovane conte, il finto attore
Альфредо Роберт / Alfredo Robert ... Pasquale Cornalis, il capocomico
Сандрино Морено / Sandrino Moreno ... Il bambino
Анна Мария Дионизи / Anna Maria Dionisi ... La cameriera di Renée
Эрманно Донати / Ermanno Donati ... Веласкес, художник /Velasquez
Антонио Аккуа / Antonio Acqua ... Il capitano Ribera
Армандо Франчоли / Armando Francioli ... Un nobile cavaliere

Описание: Барселона, 1650-й год. Испания находится на вершине своего господства. Между тем Франция старается разрушить её целостность, снабжая деньгами и оружием тех, кто добивается независимости Каталонии. Виконт де Бомон, посол Франции, организовывает заговор сепаратистов, не стесняясь в средствах для достижения своей цели. Граф дон Сезар де Базан, один из лучших военных Испании, возращается из Фландрии и влюбляется в прекрасную сеньориту Рене Дюма, с помощью которой виконт де Бомон планирует повлиять на Филиппа Четвертого, короля Испании. Вскоре граф становится помехой планам заговорщиков из-за того, что его слуга случайно обнаруживает порох в бочках из-под шампанского. Подвергаясь смертельной опасности, дон Сезар вступает в борьбу с врагами своей Родины...
По мотивам пьесы Адольфа д’Эннери и Филиппа Дюмануа.

Одним из персонажей фильма является Веласкес, знаментый испанский художник.
"Don Cesare di Bazan", 1942 также известен как "La lama del giustiziere" - "Нож адвоката".
Первый полнометражный фильм Риккардо Фреда.

В 1962 году режиссер поставил картину "Семь шпаг мстителя" ("Le sette spade del vendicatore") по пьесе Дюмануара и Д'Эннери и сценарию "Дон Сезар де Базан" (Don Cesare di Bazan, 1942).
На сегодняшний день "Семь шпаг" представляют собой завещание Фреды в жанре приключенческого костюмного фильма.

После "Дона Сезара де Базана" и 1-го "Черного орла" ("Aquila nera") — картин, вернувших итальянскому кино его исконную силу, авантюрность и динамичность, резко отличающиеся от мрачного каллиграфизма фашистского периода, — Фреда снимает "Таинственного всадника", гораздо более личный фильм, одну из своих лучших работ. С присущей ему виртуозностью он рисует необычный портрет Казановы (Гассман — в те времена начинающий актер, для которого эта роль в кино была только 7-й — стал самым породистым и убедительным экранным Казановой) в многогранном приключенческом повествовании, напоминающем то загадочный и мрачный детектив, то диковинную и страшную, почти фантастическую сказку...
(Жак Лурсель - Авторская энциклопедия фильмов.)

Доп. информация:
Огромное спасибо всем причастным к релизу:
рип - Магда,
оригинальный DVD - hipcamp(KG),
перевод фильма - Наталья Семина,
озвучивание фильма (по русским субтитрам)- fiendover (Виктор Рутилов),
работа со звуком и реавторинг исходного DVD- AlekceyR76,
финансовая поддержка перевода и озвучивания фильма: Магда, Lafajet, jasenka, елена 22, yanaelisa, борюська, voostorg, sindzi, repytwjd65, HippopotamusIV, cementit, Ugo927, sveta_pula, mumzik69

Архивы созданы RAR-архиватором с добавлением 3% на восстановление и снабжены sfv-проверочником.
Просьба к первому скачавшему отписаться о сохранности архивов на источнике раздачи.

Раздача рассчитана на 2 месяца. На просмотр линка и скачивание 5 дней!
В случае если вы встали в очередь, а затем отказываетесь от скачивания без объяснения причин, возможен отказ в последующих моих раздачах.



Полное имя :Don Cesare di Bazan.avi
Формат : AVI
Формат/Информация : Audio Video Interleave
Размер файла : 1,37 Гбайт
Продолжительность : 1 ч. 12 м.
Общий поток : 2694 Кбит/сек
Программа кодирования : VirtualDubMod 1.5.10.3 | www.virtualdub-fr.org || (build 2550/release)
Библиотека кодирования : VirtualDubMod build 2550/release

Видео
Идентификатор : 0
Формат : MPEG-4 Visual
Профиль формата : Advanced Simple@L5
Параметр BVOP формата : 2
Параметр QPel формата : Нет
Параметр GMC формата : Без точки перехода
Параметр матрицы формата : Default (H.263)
Идентификатор кодека : DX50
Идентификатор кодека/Подсказка : DivX 5
Продолжительность : 1 ч. 12 м.
Битрейт : 2296 Кбит/сек
Ширина : 688 пикселей
Высота : 528 пикселей
Соотношение сторон : 4:3
Частота кадров : 25,000 кадров/сек
Цветовое пространство : YUV
Субдискретизация насыщенности : 4:2:0
Битовая глубина : 8 бит
Тип развёртки : Прогрессивная
Метод сжатия : С потерями
Бит/(Пиксели*Кадры) : 0.253
Размер потока : 1,17 Гбайт (85%)
Библиотека кодирования : XviD 73

Аудио #1
Идентификатор : 1
Формат : AC-3
Формат/Информация : Audio Coding 3
Расширение режима : CM (complete main)
Параметр Endianness формата : Big
Идентификатор кодека : 2000
Продолжительность : 1 ч. 12 м.
Вид битрейта : Постоянный
Битрейт : 192 Кбит/сек
Каналы : 2 канала
Расположение каналов : Front: L R
Частота : 48,0 КГц
Битовая глубина : 16 бит
Метод сжатия : С потерями
Размер потока : 99,9 Мбайт (7%)
Выравнивание : Разделение по промежуткам
Продолжительность промежутка : 40 мс. (1,00 видеокадр)
Время предзагрузки промежутка : 500 мс.

Аудио #2
Идентификатор : 2
Формат : AC-3
Формат/Информация : Audio Coding 3
Расширение режима : CM (complete main)
Параметр Endianness формата : Big
Идентификатор кодека : 2000
Продолжительность : 1 ч. 12 м.
Вид битрейта : Постоянный
Битрейт : 192 Кбит/сек
Каналы : 2 канала
Расположение каналов : Front: L R
Частота : 48,0 КГц
Битовая глубина : 16 бит
Метод сжатия : С потерями
Размер потока : 99,9 Мбайт (7%)
Выравнивание : Разделение по промежуткам
Продолжительность промежутка : 40 мс. (1,00 видеокадр)
Время предзагрузки промежутка : 500 мс.




Это сообщение отредактировал surzhoks - 8.01.2018 - 17:57


OldLady
№2 Отправлено: 8.01.2018 - 14:41


секрет

Группа: Аксакалы
Регистрация: 26.03.2006
Сообщений: 3501
Последний раз был:
вчера в 21:46




Извините, я просмотрела, у меня тоже не распаковалось, пароль не тот.


Это сообщение отредактировал OldLady - 8.01.2018 - 16:45
Top
chayka2
№3 Отправлено: 8.01.2018 - 16:09


Живёт здесь

Группа: Аксакалы
Регистрация: 7.10.2009
Сообщений: 1774
Обитает:
Последний раз был:
позавчера в 21:14




Что-то у вас вместо пароля к архивам проставлен линк на архивы. У меня с таким паролем архивы не открываются. Пишет что неверный пароль.


--------------------
ОТПУСКАЙТЕ ИДИОТОВ И КЛОУНОВ ИЗ СВОЕЙ ЖИЗНИ.
ЦИРК ДОЛЖЕН ГАСТРОЛИРОВАТЬ!
Ф.Раневская

Скрыть подпись
Top
surzhoks
№4 Отправлено: 8.01.2018 - 17:01


Живёт здесь

Группа: Аксакалы
Регистрация: 17.03.2008
Сообщений: 1095
Обитает:
Последний раз был:
16.10.2018 - 20:40




Исправила пароль, прошу прощения за неудобства.
Top
OldLady
№5 Отправлено: 8.01.2018 - 17:02


секрет

Группа: Аксакалы
Регистрация: 26.03.2006
Сообщений: 3501
Последний раз был:
вчера в 21:46




Вот теперь все хорошо, спасибо!
Top
chayka2
№6 Отправлено: 8.01.2018 - 17:44


Живёт здесь

Группа: Аксакалы
Регистрация: 7.10.2009
Сообщений: 1774
Обитает:
Последний раз был:
позавчера в 21:14




Все распаковалось и собралось. Спасибо за фильм. pozdrav_buket.gif


--------------------
ОТПУСКАЙТЕ ИДИОТОВ И КЛОУНОВ ИЗ СВОЕЙ ЖИЗНИ.
ЦИРК ДОЛЖЕН ГАСТРОЛИРОВАТЬ!
Ф.Раневская

Скрыть подпись
Top
1 человек просматривает эту тему (1 гость)
« Предыдущая тема | Зарубежные фильмы | Следующая тема »


 



[Script Execution time: 0,0317]   [23 queries used]   [GZIP enabled]