Заходят многие - остаются лучшие!
Здравствуйте Гость ( Вход | Регистрация ) Выслать повторно письмо для активации
Вход
Ваше имя Пароль Забыли пароль?
Запомнить Вас?
Войти скрытым?



Новые сообщения раздела  

 

 Старый волк зовёт гостей (Китай) 1980, китайский мультфильм, любительская озвучка
даша_ст
  №1 Отправлено: 23.08.2016 - 10:04


мегамама

Группа: Аксакалы
Регистрация: 21.04.2007
Сообщений: 3418
Обитает:
Последний раз был:
cегодня в 16:57




Старый волк зовёт гостей



сюжет этого мультика очень похож на русские народные сказки о хитрой лисе. Здесь рыжая плутовка обманула волка и медведя, а сама полакомилась вкусной дичью.




Рип сделал Dimon_, за что ему большое спасибо. Перевёл grasseyer, за что ему тоже огромная благодарность. Мы с ним всё это озвучили. Он волка и медведя, я лису.



Video
ID : 0
Format : MPEG-4 Visual
Format settings, BVOP : Yes
Format settings, QPel : No
Format settings, GMC : No warppoints
Format settings, Matrix : Default (H.263)
Codec ID : DX50
Codec ID/Hint : DivX 5
Duration : 10mn 10s
Bit rate : 5 001 Kbps
Width : 720 pixels
Height : 544 pixels
Display aspect ratio : 3:2
Original display aspect rat : 4:3
Frame rate : 29.970 fps
Color space : YUV
Chroma subsampling : 4:2:0
Bit depth : 8 bits
Scan type : Progressive
Compression mode : Lossy
Bits/(Pixel*Frame) : 0.426
Stream size : 364 MiB (96%)
Writing library : DivX 6.8.5 (UTC 2009-08-20)

Audio
ID : 1
Format : MPEG Audio
Format version : Version 1
Format profile : Layer 3
Mode : Joint stereo
Mode extension : MS Stereo
Codec ID : 55
Codec ID/Hint : MP3
Duration : 10mn 10s
Bit rate mode : Constant
Bit rate : 192 Kbps
Channel(s) : 2 channels
Sampling rate : 48.0 KHz
Compression mode : Lossy
Stream size : 14.0 MiB (4%)
Alignment : Aligned on interleaves
Interleave, duration : 33 ms (1.00 video frame)
Interleave, preload duratio : 504 ms


Перезаливает для архива: медикус




Это сообщение отредактировал даша_ст - 23.08.2016 - 16:13


baziss
№2 Отправлено: 23.08.2016 - 16:49


Аксакал обыкновенный

Группа: Аксакалы
Регистрация: 4.12.2005
Сообщений: 2391
Обитает:
Последний раз был:
cегодня в 14:50




Архив в порядке. Спасибо большое! chveti.gif


--------------------

Скрыть подпись
Top
Делон
№3 Отправлено: 24.08.2016 - 23:00


Прохожий

Группа: Потребители
Регистрация: 18.08.2014
Сообщений: 36
Обитает:
Последний раз был:
cегодня в 01:32




Спасибо.
Top
1 человек просматривает эту тему (1 гость)
« Предыдущая тема | Мультпарад | Следующая тема »


 



[Script Execution time: 0,0133]   [23 queries used]   [GZIP enabled]